<?xml version="1.0" standalone="no"?>
<!DOCTYPE svg PUBLIC "-//W3C//DTD SVG 1.1//EN" "http://www.w3.org/Graphics/SVG/1.1/DTD/svg11.dtd" >
<svg xmlns="http://www.w3.org/2000/svg" xmlns:xlink="http://www.w3.org/1999/xlink" version="1.1">
<metadata>
Created by FontForge 20170731 at Tue Dec 27 16:29:12 2016
 By Aleksey,,,
Copyright (c) 2016 by www.fontiran.com (Moslem Ebrahimi). All rights reserved.
</metadata>
<defs>
<font id="IRANYekanFaNum" horiz-adv-x="0" >
  <font-face 
    font-family="IRANYekan(FaNum)"
    font-weight="400"
    font-stretch="normal"
    units-per-em="2200"
    panose-1="2 11 5 6 3 8 4 2 2 4"
    ascent="1760"
    descent="-440"
    x-height="1162"
    cap-height="1564"
    bbox="-573 -1147 3150 2693.24"
    underline-thickness="100"
    underline-position="-950"
    unicode-range="U+001D-FEFF"
  />
<missing-glyph horiz-adv-x="1229" 
d="M102 -362v1806h1024v-1806h-1024zM217 -248h795v1577h-795v-1577z" />
    <glyph glyph-name="uniFDF2" unicode="&#xfedf;&#xfee0;&#xfeea;" horiz-adv-x="2235" arabic-form="isolated" 
d="M1311 1307q-87 0 -136 48t-49 134v91l91 15v-106q0 -48 22 -70t72 -22q7 0 20.5 2.5t26.5 12t23 28t10 49.5v90l92 20v-110q0 -48 22 -70.5t73 -22.5q7 0 20 3.5t26 13t22 28t9 48.5q0 15 -3.5 36t-8.5 42t-9.5 39t-7.5 27l85 29q1 -5 7 -23.5t12 -44t11 -53.5t5 -52
q0 -47 -15 -81.5t-39.5 -57t-55 -33.5t-60.5 -11q-92 0 -140 53q-25 -27 -58 -39.5t-67 -12.5zM1100 0q-103 0 -174 26.5t-118 74.5t-72.5 116t-37.5 151l-62 442l-120 -25q-105 -27 -143 -94q-29 -49 -31.5 -118t10 -146t34 -156t42.5 -148l28 -92l-182 -51
q-18 62 -38.5 130t-38.5 138.5t-30.5 141.5t-13.5 140t11.5 133.5t45.5 121.5q81 140 262 182q20 5 55.5 13t70.5 15.5t61.5 12.5t28.5 5l111 -72l81 -525q12 -75 34 -120t51.5 -69t64 -31t70.5 -7h2q79 0 125.5 19.5t70.5 49t31 64.5t7 67l-2 705l190 44v-749
q0 -3 -0.5 -5.5t-0.5 -4.5h1q0 -54 20.5 -90.5t52.5 -58.5t71.5 -31.5t77.5 -9.5h10q61 0 104 10.5t69 34t38 61.5t12 94l-48 831l188 93l48 -924q0 -34 -3 -70.5t-13 -73.5t-29 -72.5t-51 -66.5q-29 -27 -56.5 -46.5t-63 -33t-82.5 -20t-113 -6.5h-10q-38 0 -81 6.5
t-83.5 19.5t-76.5 32.5t-61 44.5l-15 15q-29 -30 -59.5 -52t-68.5 -36.5t-86.5 -22t-112.5 -7.5h-2zM1389 1975l93 22v-278l-93 -23v279z" />
    <glyph glyph-name="uniFDFC" unicode="&#x631;&#xfef3;&#xfe8e;&#x644;" horiz-adv-x="3327" arabic-form="isolated" 
d="M733 -553q-134 0 -243.5 58.5t-177.5 164.5q-27 43 -52 113t-29.5 168.5t22 226.5t103.5 288l170 -81q-47 -96 -73.5 -184t-33 -166t6 -144.5t45.5 -119.5q42 -64 110.5 -99.5t151.5 -35.5h72q114 0 186.5 24t113 68.5t55.5 106.5t15 139v1453h186v-1453
q0 -525 -556 -527h-72zM2423 -555v189h138q103 0 178.5 24.5t125 75.5t73 130t23.5 188v624h189v-624q0 -143 -37.5 -255.5t-111.5 -190.5t-184.5 -119.5t-255.5 -41.5h-138zM2305 -394l-162 -162l-156 162l158 160zM1922 -396l-162 -162l-156 162l158 160zM2039 0
q-95 1 -163.5 14.5t-116 39t-76 64t-44.5 90t-21 115.5t-5 142v962h189v-962q0 -87 5.5 -141t29 -83.5t71 -40t131.5 -11.5v-189zM2527 814q2 -6 8 -32t13.5 -64.5t16.5 -85t16 -94t12 -91.5t5 -77q0 -96 -31.5 -165.5t-82 -115t-113.5 -67.5t-127 -22h-255v189h255
q15 0 42.5 4.5t55 22.5t48 54t20.5 100q0 22 -3.5 55.5t-9 72t-12.5 79t-14 76.5t-13 64t-10 42z" />
    <glyph glyph-name="uniFEF5" unicode="&#xfedf;&#xfe82;" horiz-adv-x="1258" arabic-form="isolated" 
d="M143 188h539q92 0 143.5 13.5t79.5 41.5q20 19 29.5 53.5t9.5 91.5v1039h188v-1039q0 -199 -113.5 -294t-336.5 -95h-539v189zM268 365l-60 1021l187 21l61 -1042h-188zM761 1560h-483q-63 0 -106 -5t-72.5 -20t-48 -43t-32.5 -74l-158 47q46 161 167 221q51 26 113 33.5
t137 7.5h483v-167z" />
    <glyph glyph-name="uniFEF6" unicode="&#xfee0;&#xfe82;" horiz-adv-x="1340" arabic-form="final" 
d="M268 366l-60 1021l187 21l61 -1042h-188zM1365 189v-189h-51q-91 0 -160.5 26t-111.5 78q-104 -104 -308 -104h-590v189h590q72 0 114 14.5t63.5 36t28 48t6.5 50.5v1090h188v-1083q0 -37 11 -63t28.5 -43.5t39 -27.5t41.5 -15t36 -6t24 -1h51zM750 1567h-483
q-63 0 -106 -5t-72.5 -20t-48 -43t-32.5 -74l-158 47q46 161 167 221q51 26 113 33.5t137 7.5h483v-167z" />
    <glyph glyph-name="uniFEF7" unicode="&#xfedf;&#xfe84;" horiz-adv-x="1258" arabic-form="isolated" 
d="M143 188h539q92 0 143.5 13.5t79.5 41.5q20 19 29.5 53.5t9.5 91.5v1039h188v-1039q0 -199 -113.5 -294t-336.5 -95h-539v189zM268 365l-60 1021l187 21l61 -1042h-188zM-21 1463l9 127l124 37q-54 43 -74 104q-13 39 -7.5 79t25 74.5t51 60t69.5 36.5q27 9 54 9.5
t52.5 -3t48.5 -11t43 -14.5l-25 -101q-17 4 -36 8t-38 6.5t-36 2t-28 -4.5q-17 -6 -31.5 -16.5t-24 -24t-12.5 -30.5t3 -37t22.5 -36.5t44.5 -25.5t67 -9t92 14l85 25l34 -108z" />
    <glyph glyph-name="uniFEF8" unicode="&#xfee0;&#xfe84;" horiz-adv-x="1352" arabic-form="final" 
d="M268 366l-60 1021l187 21l61 -1042h-188zM1365 189v-189h-51q-91 0 -160.5 26t-111.5 78q-104 -104 -308 -104h-590v189h590q72 0 114 14.5t63.5 36t28 48t6.5 50.5v1090h188v-1083q0 -37 11 -63t28.5 -43.5t39 -27.5t41.5 -15t36 -6t24 -1h51zM32 1487l9 127l124 37
q-54 43 -74 104q-13 39 -7.5 79t25 74.5t51 60t69.5 36.5q27 9 54 9.5t52.5 -3t48.5 -11t43 -14.5l-25 -101q-17 4 -36 8t-38 6.5t-36 2t-28 -4.5q-17 -6 -31.5 -16.5t-24 -24t-12.5 -30.5t3 -37t22.5 -36.5t44.5 -25.5t67 -9t92 14l85 25l34 -108z" />
    <glyph glyph-name="uniFEF9" unicode="&#xfedf;&#xfe88;" horiz-adv-x="1275" arabic-form="isolated" 
d="M143 188h539q92 0 143.5 13.5t79.5 41.5q20 19 29.5 53.5t9.5 91.5v1039h188v-1039q0 -199 -113.5 -294t-336.5 -95h-539v189zM268 365l-60 1021l187 21l61 -1042h-188zM267 -671l9 127l124 37q-54 43 -74 104q-13 39 -7.5 79t25 74.5t51 60t69.5 36.5q27 9 54 9.5
t52.5 -3t48.5 -11t43 -14.5l-25 -101q-17 4 -36 8t-38 6.5t-36 2t-28 -4.5q-17 -6 -31.5 -16.5t-24 -24t-12.5 -30.5t3 -37t22.5 -36.5t44.5 -25.5t67 -9t92 14l85 25l34 -108z" />
    <glyph glyph-name="uniFEFA" unicode="&#xfee0;&#xfe88;" horiz-adv-x="1344" arabic-form="final" 
d="M268 366l-60 1021l187 21l61 -1042h-188zM1365 189v-189h-51q-91 0 -160.5 26t-111.5 78q-104 -104 -308 -104h-590v189h590q72 0 114 14.5t63.5 36t28 48t6.5 50.5v1090h188v-1083q0 -37 11 -63t28.5 -43.5t39 -27.5t41.5 -15t36 -6t24 -1h51zM262 -668l9 127l124 37
q-54 43 -74 104q-13 39 -7.5 79t25 74.5t51 60t69.5 36.5q27 9 54 9.5t52.5 -3t48.5 -11t43 -14.5l-25 -101q-17 4 -36 8t-38 6.5t-36 2t-28 -4.5q-17 -6 -31.5 -16.5t-24 -24t-12.5 -30.5t3 -37t22.5 -36.5t44.5 -25.5t67 -9t92 14l85 25l34 -108z" />
    <glyph glyph-name="uniFEFB" unicode="&#xfedf;&#xfe8e;" horiz-adv-x="1302" arabic-form="isolated" 
d="M143 189h539q92 0 143.5 13.5t79.5 41.5q20 19 29.5 53.5t9.5 91.5v1039h188v-1039q0 -199 -113.5 -294t-336.5 -95h-539v189zM268 366l-60 1021l187 21l61 -1042h-188z" />
    <glyph glyph-name="uniFEFC" unicode="&#xfee0;&#xfe8e;" horiz-adv-x="1340" arabic-form="final" 
d="M268 366l-60 1021l187 21l61 -1042h-188zM1365 189v-189h-51q-91 0 -160.5 26t-111.5 78q-104 -104 -308 -104h-590v189h590q72 0 114 14.5t63.5 36t28 48t6.5 50.5v1090h188v-1083q0 -37 11 -63t28.5 -43.5t39 -27.5t41.5 -15t36 -6t24 -1h51z" />
    <glyph glyph-name="uni06440671.isol" unicode="&#xfedf;&#xfb51;" horiz-adv-x="1258" 
d="M143 188h539q92 0 143.5 13.5t79.5 41.5q20 19 29.5 53.5t9.5 91.5v1039h188v-1039q0 -199 -113.5 -294t-336.5 -95h-539v189zM268 365l-60 1021l187 21l61 -1042h-188zM-9 1530l19 85h129l47 73l83 122q38 46 84 77t103 31q33 0 64.5 -12t56.5 -37.5t40.5 -64.5
t15.5 -92q0 -51 -17 -85.5t-43 -56t-58.5 -31t-63.5 -9.5h-460zM451 1615q42 0 69 23t27 74q0 58 -23.5 89.5t-67.5 31.5q-32 0 -61 -20t-56 -51.5t-51.5 -69.5t-45.5 -74q-1 -1 -1 -3h210z" />
    <glyph glyph-name="uni06440671.fina" unicode="&#xfee0;&#xfb51;" horiz-adv-x="1346" 
d="M268 366l-60 1021l187 21l61 -1042h-188zM1365 189v-189h-51q-91 0 -160.5 26t-111.5 78q-104 -104 -308 -104h-590v189h590q72 0 114 14.5t63.5 36t28 48t6.5 50.5v1090h188v-1083q0 -37 11 -63t28.5 -43.5t39 -27.5t41.5 -15t36 -6t24 -1h51zM-32 1544l19 85h129l47 73
l83 122q38 46 84 77t103 31q33 0 64.5 -12t56.5 -37.5t40.5 -64.5t15.5 -92q0 -51 -17 -85.5t-43 -56t-58.5 -31t-63.5 -9.5h-460zM428 1629q42 0 69 23t27 74q0 58 -23.5 89.5t-67.5 31.5q-32 0 -61 -20t-56 -51.5t-51.5 -69.5t-45.5 -74q-1 -1 -1 -3h210z" />
    <glyph glyph-name="uni0621" unicode="&#x621;" horiz-adv-x="1004" arabic-form="isolated" 
d="M99 -44l-6 183l232 69q-50 35 -88 81t-55 101v-1q-22 67 -11 136t44 130q23 39 55.5 70.5t71.5 53.5t82 33.5t88 11.5q58 0 116 -13.5t115 -27.5q-10 -44 -19.5 -80.5t-19.5 -80.5q-63 13 -109.5 18.5t-84.5 5.5q-45 0 -82.5 -17.5t-62 -46.5t-34 -65.5t2.5 -75.5
q12 -38 36 -64.5t55 -43t66 -24t70 -7.5q36 0 78.5 8t86.5 20t86 26t76 26l7 -193z" />
    <glyph glyph-name="uni0622" unicode="&#x622;" horiz-adv-x="761" arabic-form="isolated" 
d="M460 0h-189v1277h189v-1277zM783 1438h-483q-63 0 -106 -5t-72.5 -20t-48 -43t-32.5 -74l-158 47q46 161 167 221q51 26 113 33.5t137 7.5h483v-167z" />
    <glyph glyph-name="uni0623" unicode="&#x623;" horiz-adv-x="592" arabic-form="isolated" 
d="M393 0h-189v1277h189v-1277zM29 1369l9 127l124 37q-54 43 -74 104q-13 39 -7.5 79t25 74.5t51 60t69.5 36.5q27 9 54 9.5t52.5 -3t48.5 -11t43 -14.5l-25 -101q-17 4 -36 8t-38 6.5t-36 2t-28 -4.5q-17 -6 -31.5 -16.5t-24 -24t-12.5 -30.5t3 -37t22.5 -36.5t44.5 -25.5
t67 -9t92 14l85 25l34 -108z" />
    <glyph glyph-name="uni0624" unicode="&#x624;" horiz-adv-x="973" arabic-form="isolated" 
d="M193 -363q151 0 254 23t163 71q52 42 76.5 107t24.5 162h-184q-70 0 -142 21t-130.5 69t-95.5 125.5t-37 189.5q0 66 11.5 119.5t29 95.5t38.5 73t41 53q55 55 126 85t152 30q71 0 133 -22t111 -66q135 -126 135 -395v-189v-189q0 -142 -41.5 -244.5t-128.5 -171.5
q-88 -69 -218.5 -102.5t-317.5 -33.5v189zM520 672q-99 0 -154 -70t-55 -197q0 -129 78 -179q19 -12 39 -19.5t39 -11t34.5 -5t25.5 -1.5h184v189q0 73 -11 123.5t-28 83.5t-38.5 50.5t-42.5 25.5t-40 9.5t-31 1.5zM183 1016l9 127l124 37q-54 43 -74 104q-13 39 -7.5 79
t25 74.5t51 60t69.5 36.5q27 9 54 9.5t52.5 -3t48.5 -11t43 -14.5l-25 -101q-17 4 -36 8t-38 6.5t-36 2t-28 -4.5q-17 -6 -31.5 -16.5t-24 -24t-12.5 -30.5t3 -37t22.5 -36.5t44.5 -25.5t67 -9t92 14l85 25l34 -108z" />
    <glyph glyph-name="uni0625" unicode="&#x625;" horiz-adv-x="592" arabic-form="isolated" 
d="M390 1h-189v1426h189v-1426zM58 -684l9 127l124 37q-54 43 -74 104q-13 39 -7.5 79t25 74.5t51 60t69.5 36.5q27 9 54 9.5t52.5 -3t48.5 -11t43 -14.5l-25 -101q-17 4 -36 8t-38 6.5t-36 2t-28 -4.5q-17 -6 -31.5 -16.5t-24 -24t-12.5 -30.5t3 -37t22.5 -36.5t44.5 -25.5
t67 -9t92 14l85 25l34 -108z" />
    <glyph glyph-name="uni0626" unicode="&#x626;" horiz-adv-x="1680" arabic-form="isolated" 
d="M933 -361q100 0 173.5 17.5t121.5 55.5t71 99t23 148q-96 25 -188 50q-39 10 -82 21.5t-85.5 23t-83 21.5t-74.5 19q-47 114 -44 223.5t44 204.5t116 170.5t173 120.5t214 54.5t240 -26.5l-47 -181q-68 21 -138 20.5t-134.5 -20t-119.5 -56.5t-93.5 -88.5t-56 -116
t-7.5 -138.5l383 -95q80 -22 120 -72t40 -122q0 -131 -31 -229.5t-99 -163.5t-175.5 -98t-260.5 -33h-221q-76 0 -147 19t-134 53t-116 82t-93 106q-47 76 -71 167t-24 192q0 125 39.5 269.5t115.5 305.5q45 -21 84 -40.5t82 -40.5q-132 -282 -132 -489q0 -74 18 -141
t50 -121q51 -80 138 -125.5t190 -45.5h221v0zM110 757l9 127l124 37q-54 43 -74 104q-13 39 -7.5 79t25 74.5t51 60t69.5 36.5q27 9 54 9.5t52.5 -3t48.5 -11t43 -14.5l-25 -101q-17 4 -36 8t-38 6.5t-36 2t-28 -4.5q-17 -6 -31.5 -16.5t-24 -24t-12.5 -30.5t3 -37
t22.5 -36.5t44.5 -25.5t67 -9t92 14l85 25l34 -108z" />
    <glyph glyph-name="uni0627" unicode="&#x627;" horiz-adv-x="592" arabic-form="isolated" 
d="M390 1h-189v1426h189v-1426z" />
    <glyph glyph-name="uni0628" unicode="&#x628;" horiz-adv-x="2101" arabic-form="isolated" 
d="M1965 767q22 -87 40 -183t21 -204q2 -90 -23.5 -160.5t-72 -119.5t-111.5 -75t-143 -26l-603 -2q-135 0 -265.5 0.5t-244.5 15t-205.5 49t-147.5 100.5q-82 96 -82 244q0 51 7.5 102.5t16.5 94t16.5 70t8.5 29.5l180 -55l-6.5 -23t-14 -58t-14 -77.5t-6.5 -82.5
q0 -81 45.5 -126.5t139 -66.5t236 -25t336.5 -3l603 3q40 0 70.5 14t50.5 39t30 59.5t8 74.5q-2 94 -18.5 180t-36.5 167l185 45v0zM888 -349l170 172l174 -174l-172 -172z" />
    <glyph glyph-name="uni0629" unicode="&#x629;" horiz-adv-x="1043" arabic-form="isolated" 
d="M525 0q-90 0 -165.5 27.5t-131 76t-86.5 115t-31 144.5q0 100 26.5 176.5t67.5 138t90 112.5t94 100l-62 69l140 127q52 -58 107.5 -116.5t108.5 -118t99.5 -119t81.5 -119t55.5 -119t19.5 -117.5q-1 -81 -32.5 -151.5t-91.5 -124.5q-56 -48 -130.5 -74.5t-159.5 -26.5z
M512 755q-38 -43 -76 -85.5t-68 -89.5t-49 -100t-19 -117q0 -45 19.5 -77.5t51 -54t72 -32t82.5 -10.5q51 0 92.5 13.5t71 38.5t45.5 59.5t16 76.5q0 50 -21 98.5t-54.5 95.5t-76.5 93t-86 91zM694 1214l-158 160l156 162l162 -162zM311 1216l-158 160l156 162l162 -162z
" />
    <glyph glyph-name="uni062A" unicode="&#x62a;" horiz-adv-x="2101" arabic-form="isolated" 
d="M1965 767q22 -87 40 -183t21 -204q2 -90 -23.5 -160.5t-72 -119.5t-111.5 -75t-143 -26l-603 -2q-135 0 -265.5 0.5t-244.5 15t-205.5 49t-147.5 100.5q-82 96 -82 244q0 51 7.5 102.5t16.5 94t16.5 70t8.5 29.5l180 -55l-6.5 -23t-14 -58t-14 -77.5t-6.5 -82.5
q0 -81 45.5 -126.5t139 -66.5t236 -25t336.5 -3l603 3q40 0 70.5 14t50.5 39t30 59.5t8 74.5q-2 94 -18.5 180t-36.5 167l185 45v0zM1263 766l-158 160l156 162l162 -162zM880 768l-158 160l156 162l162 -162z" />
    <glyph glyph-name="uni062B" unicode="&#x62b;" horiz-adv-x="2104" arabic-form="isolated" 
d="M1965 767q22 -87 40 -183t21 -204q2 -90 -23.5 -160.5t-72 -119.5t-111.5 -75t-143 -26l-603 -2q-135 0 -265.5 0.5t-244.5 15t-205.5 49t-147.5 100.5q-82 96 -82 244q0 51 7.5 102.5t16.5 94t16.5 70t8.5 29.5l180 -55l-6.5 -23t-14 -58t-14 -77.5t-6.5 -82.5
q0 -81 45.5 -126.5t139 -66.5t236 -25t336.5 -3l603 3q40 0 70.5 14t50.5 39t30 59.5t8 74.5q-2 94 -18.5 180t-36.5 167l185 45v0zM1225 1170l-142 -139l-140 139l144 143zM1274 718l-158 160l156 162l162 -162zM891 720l-158 160l156 162l162 -162z" />
    <glyph glyph-name="uni062C" unicode="&#x62c;" horiz-adv-x="1491" arabic-form="isolated" 
d="M1342 603q-2 -1 -31.5 -12.5t-99 -38t-186 -70t-293.5 -109.5q-108 -41 -185 -74.5t-128 -64t-79.5 -60t-41.5 -60t-14 -65.5t5 -76q13 -105 54 -171t104.5 -102.5t148.5 -50t186 -13.5h459v-189h-459q-46 0 -97.5 2.5t-105 11t-107.5 24.5t-105 43q-226 122 -265 420
q-16 121 11.5 209.5t101.5 159.5q70 67 182.5 120.5t269.5 111.5l419 150q-97 39 -194 74t-178.5 61.5t-139.5 43t-77 19.5q-17 0 -35.5 -3t-36.5 -18t-35 -46.5t-32 -88.5l-183 48q77 296 324 296q7 0 16.5 -0.5t29 -5t50.5 -14t81 -26.5t121 -43.5t170 -65.5l368 -150z
M697 42l170 172l174 -174l-172 -172z" />
    <glyph glyph-name="uni062D" unicode="&#x62d;" horiz-adv-x="1449" arabic-form="isolated" 
d="M1342 603q-2 -1 -31.5 -12.5t-99 -38t-186 -70t-293.5 -109.5q-108 -41 -185 -74.5t-128 -64t-79.5 -60t-41.5 -60t-14 -65.5t5 -76q13 -105 54 -171t104.5 -102.5t148.5 -50t186 -13.5h459v-189h-459q-46 0 -97.5 2.5t-105 11t-107.5 24.5t-105 43q-226 122 -265 420
q-16 121 11.5 209.5t101.5 159.5q70 67 182.5 120.5t269.5 111.5l419 150q-97 39 -194 74t-178.5 61.5t-139.5 43t-77 19.5q-17 0 -35.5 -3t-36.5 -18t-35 -46.5t-32 -88.5l-183 48q77 296 324 296q7 0 16.5 -0.5t29 -5t50.5 -14t81 -26.5t121 -43.5t170 -65.5l368 -150z
" />
    <glyph glyph-name="uni062E" unicode="&#x62e;" horiz-adv-x="1465" arabic-form="isolated" 
d="M1342 603q-2 -1 -31.5 -12.5t-99 -38t-186 -70t-293.5 -109.5q-108 -41 -185 -74.5t-128 -64t-79.5 -60t-41.5 -60t-14 -65.5t5 -76q13 -105 54 -171t104.5 -102.5t148.5 -50t186 -13.5h459v-189h-459q-46 0 -97.5 2.5t-105 11t-107.5 24.5t-105 43q-226 122 -265 420
q-16 121 11.5 209.5t101.5 159.5q70 67 182.5 120.5t269.5 111.5l419 150q-97 39 -194 74t-178.5 61.5t-139.5 43t-77 19.5q-17 0 -35.5 -3t-36.5 -18t-35 -46.5t-32 -88.5l-183 48q77 296 324 296q7 0 16.5 -0.5t29 -5t50.5 -14t81 -26.5t121 -43.5t170 -65.5l368 -150z
M332 1466l170 172l174 -174l-172 -172z" />
    <glyph glyph-name="uni062F" unicode="&#x62f;" horiz-adv-x="1080" arabic-form="isolated" 
d="M543 -15q-51 0 -103 4.5t-101.5 14t-95 25t-82.5 37.5l-83 47l94 165l83 -47q35 -20 86 -32.5t108 -18t115 -4.5t107 8q58 9 95.5 25.5t47.5 37.5q10 22 -3 61t-45 87l-362 547l160 104q13 -20 27 -41.5t33 -50t44 -67t61 -92.5l84 -126l112 -168q25 -38 45 -79.5
t30 -83.5t8.5 -84.5t-20.5 -83.5q-63 -141 -290 -174q-35 -5 -74 -8t-81 -3z" />
    <glyph glyph-name="uni0630" unicode="&#x630;" horiz-adv-x="1088" arabic-form="isolated" 
d="M543 -15q-51 0 -103 4.5t-101.5 14t-95 25t-82.5 37.5l-83 47l94 165l83 -47q35 -20 86 -32.5t108 -18t115 -4.5t107 8q58 9 95.5 25.5t47.5 37.5q10 22 -3 61t-45 87l-362 547l160 104q13 -20 27 -41.5t33 -50t44 -67t61 -92.5l84 -126l112 -168q25 -38 45 -79.5
t30 -83.5t8.5 -84.5t-20.5 -83.5q-63 -141 -290 -174q-35 -5 -74 -8t-81 -3zM369 1414l170 172l174 -174l-172 -172z" />
    <glyph glyph-name="uni0631" unicode="&#x631;" horiz-adv-x="735" arabic-form="isolated" 
d="M-90 -555v189h138q103 0 178.5 24.5t125 75.5t73 130t23.5 188v624h189v-624q0 -143 -37.5 -255.5t-111.5 -190.5t-184.5 -119.5t-255.5 -41.5h-138z" />
    <glyph glyph-name="uni0632" unicode="&#x632;" horiz-adv-x="795" arabic-form="isolated" 
d="M-90 -555v189h138q103 0 178.5 24.5t125 75.5t73 130t23.5 188v624h189v-624q0 -143 -37.5 -255.5t-111.5 -190.5t-184.5 -119.5t-255.5 -41.5h-138zM367 1109l170 172l174 -174l-172 -172z" />
    <glyph glyph-name="uni0633" unicode="&#x633;" horiz-adv-x="2736" arabic-form="isolated" 
d="M2285 0q-99 0 -173.5 29t-124.5 84q-27 -32 -60.5 -53.5t-69 -35t-72 -19t-70.5 -5.5q-125 0 -216 56v-84q0 -262 -140 -393t-419 -131h-235q-155 0 -281 67t-204 191q-54 85 -77.5 189t-16.5 223t44 250t103 270l170 -83q-56 -116 -88.5 -223t-40.5 -202.5t8 -177
t57 -145.5q52 -81 136 -125.5t190 -44.5h235q115 0 187.5 24t113 68t55 105.5t14.5 137.5v704h189v-195q0 -96 18.5 -153.5t49 -88.5t69 -41t79.5 -10q25 0 57 9t60 30.5t47.5 57.5t19.5 90v301h188v-311q2 -91 48.5 -134t148.5 -43q17 1 44.5 7.5t53 26t44 56t18.5 97.5
q0 22 -3.5 55t-8.5 70.5t-12 77t-13.5 74.5t-12.5 62.5t-10 41.5l180 55q2 -5 7.5 -30.5t13.5 -63t16.5 -83.5t15.5 -92.5t11.5 -90t4.5 -76.5q0 -95 -30.5 -164.5t-80 -116t-112 -70t-125.5 -24.5z" />
    <glyph glyph-name="uni0634" unicode="&#x634;" horiz-adv-x="2742" arabic-form="isolated" 
d="M2285 0q-99 0 -173.5 29t-124.5 84q-27 -32 -60.5 -53.5t-69 -35t-72 -19t-70.5 -5.5q-125 0 -216 56v-84q0 -262 -140 -393t-419 -131h-235q-155 0 -281 67t-204 191q-54 85 -77.5 189t-16.5 223t44 250t103 270l170 -83q-56 -116 -88.5 -223t-40.5 -202.5t8 -177
t57 -145.5q52 -81 136 -125.5t190 -44.5h235q115 0 187.5 24t113 68t55 105.5t14.5 137.5v704h189v-195q0 -96 18.5 -153.5t49 -88.5t69 -41t79.5 -10q25 0 57 9t60 30.5t47.5 57.5t19.5 90v301h188v-311q2 -91 48.5 -134t148.5 -43q17 1 44.5 7.5t53 26t44 56t18.5 97.5
q0 22 -3.5 55t-8.5 70.5t-12 77t-13.5 74.5t-12.5 62.5t-10 41.5l180 55q2 -5 7.5 -30.5t13.5 -63t16.5 -83.5t15.5 -92.5t11.5 -90t4.5 -76.5q0 -95 -30.5 -164.5t-80 -116t-112 -70t-125.5 -24.5zM2099 1392l-142 -139l-140 139l144 143zM2148 940l-158 160l156 162
l162 -162zM1765 942l-158 160l156 162l162 -162z" />
    <glyph glyph-name="uni0635" unicode="&#x635;" horiz-adv-x="2793" arabic-form="isolated" 
d="M720 -550q-156 0 -282.5 67.5t-204.5 192.5q-54 85 -77.5 188.5t-16.5 221.5t43.5 247.5t102.5 267.5l171 -81q-112 -232 -128 -423.5t66 -321.5q50 -81 135 -125.5t191 -44.5h235q115 0 186.5 24.5t112 68.5t55 106.5t14.5 138.5v357v342h188v-334q0 -54 23 -85t53 -46
q12 19 23.5 39t25.5 40q38 63 80.5 130t89 130t98 119.5t109.5 98.5t122.5 66.5t137.5 24.5t143.5 -27t126 -83.5t89.5 -142.5t34 -204q0 -111 -36.5 -187.5t-94.5 -124.5t-129.5 -69t-141.5 -21h-573q-48 0 -94 10t-86 29v-62q0 -527 -556 -527h-235zM2264 189q9 0 24 1
t33.5 4.5t38.5 10.5t39 20q78 52 78 177q0 127 -53.5 197.5t-150.5 70.5q-46 0 -90.5 -21t-86.5 -56.5t-82 -83t-78 -101t-73 -110t-68 -109.5h469z" />
    <glyph glyph-name="uni0636" unicode="&#x636;" horiz-adv-x="2760" arabic-form="isolated" 
d="M720 -550q-156 0 -282.5 67.5t-204.5 192.5q-54 85 -77.5 188.5t-16.5 221.5t43.5 247.5t102.5 267.5l171 -81q-112 -232 -128 -423.5t66 -321.5q50 -81 135 -125.5t191 -44.5h235q115 0 186.5 24.5t112 68.5t55 106.5t14.5 138.5v357v342h188v-334q0 -54 23 -85t53 -46
q12 19 23.5 39t25.5 40q38 63 80.5 130t89 130t98 119.5t109.5 98.5t122.5 66.5t137.5 24.5t143.5 -27t126 -83.5t89.5 -142.5t34 -204q0 -111 -36.5 -187.5t-94.5 -124.5t-129.5 -69t-141.5 -21h-573q-48 0 -94 10t-86 29v-62q0 -527 -556 -527h-235zM2264 189q9 0 24 1
t33.5 4.5t38.5 10.5t39 20q78 52 78 177q0 127 -53.5 197.5t-150.5 70.5q-46 0 -90.5 -21t-86.5 -56.5t-82 -83t-78 -101t-73 -110t-68 -109.5h469zM2087 1229l170 172l174 -174l-172 -172z" />
    <glyph glyph-name="uni0637" unicode="&#x637;" horiz-adv-x="1525" arabic-form="isolated" 
d="M87 0v189h224q25 38 49 80t50 81v1077h188v-807q43 51 89.5 95.5t98 76.5t108 50.5t118.5 18.5q73 0 144 -27t126.5 -83t89.5 -142t34 -204q0 -75 -17 -134t-46.5 -104t-69 -76.5t-84.5 -52t-93.5 -29.5t-94.5 -9h-914zM1001 189q9 0 24.5 1t34.5 5t39.5 11t39.5 19
q40 26 59 70t19 110q0 127 -54 197.5t-151 70.5q-46 0 -90 -20.5t-86.5 -56t-82.5 -83t-77.5 -101t-72.5 -110t-67 -109.5q-2 -2 -2 -4h467z" />
    <glyph glyph-name="uni0638" unicode="&#x638;" horiz-adv-x="1532" arabic-form="isolated" 
d="M87 0v189h224q25 38 49 80t50 81v1077h188v-807q43 51 89.5 95.5t98 76.5t108 50.5t118.5 18.5q73 0 144 -27t126.5 -83t89.5 -142t34 -204q0 -75 -17 -134t-46.5 -104t-69 -76.5t-84.5 -52t-93.5 -29.5t-94.5 -9h-914zM1001 189q9 0 24.5 1t34.5 5t39.5 11t39.5 19
q40 26 59 70t19 110q0 127 -54 197.5t-151 70.5q-46 0 -90 -20.5t-86.5 -56t-82.5 -83t-77.5 -101t-72.5 -110t-67 -109.5q-2 -2 -2 -4h467zM869 1287l170 172l174 -174l-172 -172z" />
    <glyph glyph-name="uni0639" unicode="&#x639;" horiz-adv-x="1384" arabic-form="isolated" 
d="M1193 -552h-465q-120 0 -235.5 33t-206.5 101.5t-146.5 173.5t-55.5 249q0 121 48 227t138 182q57 48 125 80.5t140 46.5q-39 39 -63 80.5t-37 79.5t-17.5 71.5t-4.5 57.5q0 82 33 154t88.5 126t129 85t154.5 31q55 0 104 -14t94.5 -36t89 -49t89.5 -53l-94 -163
q-35 20 -72 42.5t-73 41t-71 30.5t-67 12q-39 0 -78 -14.5t-69.5 -41.5t-50 -65t-19.5 -86q0 -15 3 -35t12.5 -43.5t26.5 -48t46 -47.5q66 -52 171 -79t245 -27h127v-189h-605q-36 0 -76 -9.5t-79.5 -29t-75.5 -48.5t-63 -68.5t-43.5 -89.5t-16.5 -111q0 -87 28.5 -148.5
t72.5 -102.5t98 -64.5t104.5 -35t91.5 -14.5t60 -3h465v-189z" />
    <glyph glyph-name="uni063A" unicode="&#x63a;" horiz-adv-x="1368" arabic-form="isolated" 
d="M1193 -552h-465q-120 0 -235.5 33t-206.5 101.5t-146.5 173.5t-55.5 249q0 121 48 227t138 182q57 48 125 80.5t140 46.5q-39 39 -63 80.5t-37 79.5t-17.5 71.5t-4.5 57.5q0 82 33 154t88.5 126t129 85t154.5 31q55 0 104 -14t94.5 -36t89 -49t89.5 -53l-94 -163
q-35 20 -72 42.5t-73 41t-71 30.5t-67 12q-39 0 -78 -14.5t-69.5 -41.5t-50 -65t-19.5 -86q0 -15 3 -35t12.5 -43.5t26.5 -48t46 -47.5q66 -52 171 -79t245 -27h127v-189h-605q-36 0 -76 -9.5t-79.5 -29t-75.5 -48.5t-63 -68.5t-43.5 -89.5t-16.5 -111q0 -87 28.5 -148.5
t72.5 -102.5t98 -64.5t104.5 -35t91.5 -14.5t60 -3h465v-189zM661 1590l170 172l174 -174l-172 -172z" />
    <glyph glyph-name="uni0641" unicode="&#x641;" horiz-adv-x="2104" arabic-form="isolated" 
d="M1057 -3q-102 0 -193 0.5t-171.5 4.5t-150.5 12.5t-129 24.5q-143 39 -215 123q-82 92 -82 244q0 51 7.5 102.5t16.5 94t16.5 70t8.5 29.5l180 -55l-6.5 -23t-14 -58t-14 -77.5t-6.5 -82.5t8.5 -69.5t27 -51t48.5 -37t74 -27.5q102 -27 251 -31.5t344 -4.5h120
q56 0 130 0.5t159 0.5q75 0 129.5 7.5t93.5 19.5t63.5 28.5t39 34.5t20.5 36.5t8 35.5q-32 0 -71 0.5t-80 0.5q-75 0 -149.5 14t-134.5 53t-97.5 107t-37.5 176q0 81 27.5 151t76.5 122.5t117 82.5t149 30q111 0 186 -48.5t120.5 -128t64.5 -181t19 -207.5v-137
q0 -114 -45 -188.5t-120.5 -118.5t-174 -61.5t-204.5 -17.5h-409zM1620 897q-34 0 -66.5 -11.5t-58 -36t-41.5 -62t-16 -88.5q0 -38 9 -68t34.5 -51t70.5 -32t117 -11h152q-5 64 -12.5 128t-27 115.5t-57.5 84t-104 32.5zM1432 1470l170 172l174 -174l-172 -172z" />
    <glyph glyph-name="uni0642" unicode="&#x642;" horiz-adv-x="1598" arabic-form="isolated" 
d="M794 -554h-100q-77 0 -148 17.5t-133.5 50.5t-114 81.5t-89.5 110.5q-54 85 -78 188.5t-17.5 221.5t43.5 247.5t105 267.5l170 -81q-56 -116 -88.5 -222.5t-40.5 -201.5t8 -176t57 -145q50 -81 135 -125.5t191 -44.5h90v2q151 0 254 23t163 71q52 42 76.5 107t24.5 162
h-184q-70 0 -142 21t-130.5 69t-95.5 125.5t-37 189.5q0 66 11.5 119.5t29 95.5t38.5 73t41 53q55 55 126 85t152 30q71 0 133 -22t111 -66q135 -126 135 -395v-378q0 -142 -41.5 -244.5t-128.5 -171.5t-214.5 -102t-311.5 -34v-2zM1111 672q-99 0 -154 -70t-55 -197
q0 -129 78 -179q19 -12 39 -19.5t39 -11t34.5 -5t25.5 -1.5h184v189q0 73 -11 123.5t-28 83.5t-38.5 50.5t-42.5 25.5t-40 9.5t-31 1.5zM1278 1070l-158 160l156 162l162 -162zM895 1072l-158 160l156 162l162 -162z" />
    <glyph glyph-name="uni0643" unicode="&#x643;" horiz-adv-x="2057" arabic-form="isolated" 
d="M920 487l-22 111q67 13 117 27.5t84.5 28t53 24.5t22.5 17q-6 2 -21.5 2.5t-32.5 0t-33.5 -1.5t-25.5 -2q-28 -2 -57.5 -2.5t-57 5.5t-50 20.5t-35.5 43.5q-59 135 212 296l57 -98q-53 -32 -89 -58.5t-57.5 -46.5t-30.5 -33.5t-9 -18.5q6 -2 20 -2t30.5 1.5t33 3.5
t26.5 2q26 2 52.5 2.5t51.5 -3.5q24 -4 41 -12t28.5 -18.5t18 -22.5t10.5 -23q14 -49 -11 -92q-58 -98 -326 -151zM1073 186q113 0 215 5.5t185 16.5t143 28.5t89 41.5q18 20 29 55.5t11 89.5v1004h189v-1004q0 -34 -3.5 -70.5t-14 -73.5t-30 -72.5t-50.5 -67.5
q-43 -45 -117 -72.5t-172.5 -42.5t-218.5 -20.5t-255 -5.5q-102 0 -194 0.5t-173 4.5t-151 12.5t-130 24.5q-143 39 -215 123q-82 92 -82 244q0 51 7.5 102.5t16.5 94t16.5 70t8.5 29.5l180 -55l-6.5 -23t-14 -58t-14 -77.5t-6.5 -82.5t8.5 -69.5t27 -51t48.5 -37t74 -27.5
q102 -27 253 -31.5t346 -4.5z" />
    <glyph glyph-name="uni0644" unicode="&#x644;" horiz-adv-x="1335" arabic-form="isolated" 
d="M583 -553q-134 0 -243.5 58.5t-177.5 164.5q-27 43 -52 113t-29.5 168.5t22 226.5t103.5 288l170 -81q-47 -96 -73.5 -184t-33 -166t6 -144.5t45.5 -119.5q42 -64 110.5 -99.5t151.5 -35.5h72q114 0 186.5 24t113 68.5t55.5 106.5t15 139v1453h186v-1453
q0 -525 -556 -527h-72z" />
    <glyph glyph-name="uni0645" unicode="&#x645;" horiz-adv-x="1352" arabic-form="isolated" 
d="M308 -660h-188v1036l182 106q29 -16 60 -33q26 -14 56.5 -31t59.5 -31q15 90 34.5 162.5t48.5 130.5q97 195 306 195q91 0 166.5 -37.5t127.5 -109.5q44 -60 66.5 -138t22.5 -166q0 -97 -16.5 -167t-43 -118t-60 -76.5t-67.5 -44t-66 -20.5t-55 -5q-17 0 -44 5t-73 21
t-116 46t-173 81q-69 34 -129.5 65.5t-98.5 52.5v-924zM655 298q85 -42 140 -65t87 -34.5t45 -14t15 -2.5q11 0 31.5 4t40 26.5t34 71.5t14.5 140q0 11 -1.5 35t-8 53t-19 60t-34 56.5t-54 42t-78.5 16.5q-39 0 -70 -14t-56.5 -56t-46 -118.5t-39.5 -200.5z" />
    <glyph glyph-name="uni0646" unicode="&#x646;" horiz-adv-x="1576" arabic-form="isolated" 
d="M682 -554q-155 0 -281 67.5t-204 192.5q-54 85 -77.5 188.5t-16.5 221.5t44 247.5t103 267.5l170 -81q-56 -116 -88.5 -222.5t-40.5 -201.5t8 -176t57 -145q52 -81 136 -125.5t190 -44.5h235q115 0 187.5 24.5t113 68.5t55 106.5t14.5 138.5v703h189v-703
q0 -264 -140 -395.5t-419 -131.5h-235zM690 755l170 172l174 -174l-172 -172z" />
    <glyph glyph-name="uni0647" unicode="&#x647;" horiz-adv-x="1042" arabic-form="isolated" 
d="M525 0q-90 0 -165.5 27.5t-131 76t-86.5 115t-31 144.5q0 100 26.5 176.5t67.5 138t90 112.5t94 100l-62 69l140 127q52 -58 107.5 -116.5t108.5 -118t99.5 -119t81.5 -119t55.5 -119t19.5 -117.5q-1 -81 -32.5 -151.5t-91.5 -124.5q-56 -48 -130.5 -74.5t-159.5 -26.5z
M512 755q-38 -43 -76 -85.5t-68 -89.5t-49 -100t-19 -117q0 -45 19.5 -77.5t51 -54t72 -32t82.5 -10.5q51 0 92.5 13.5t71 38.5t45.5 59.5t16 76.5q0 50 -21 98.5t-54.5 95.5t-76.5 93t-86 91z" />
    <glyph glyph-name="uni0648" unicode="&#x648;" horiz-adv-x="1024" arabic-form="isolated" 
d="M193 -363q151 0 254 23t163 71q52 42 76.5 107t24.5 162h-184q-70 0 -142 21t-130.5 69t-95.5 125.5t-37 189.5q0 66 11.5 119.5t29 95.5t38.5 73t41 53q55 55 126 85t152 30q71 0 133 -22t111 -66q135 -126 135 -395v-189v-189q0 -142 -41.5 -244.5t-128.5 -171.5
q-88 -69 -218.5 -102.5t-317.5 -33.5v189zM520 672q-99 0 -154 -70t-55 -197q0 -129 78 -179q19 -12 39 -19.5t39 -11t34.5 -5t25.5 -1.5h184v189q0 73 -11 123.5t-28 83.5t-38.5 50.5t-42.5 25.5t-40 9.5t-31 1.5z" />
    <glyph glyph-name="uni0649" unicode="&#x649;" horiz-adv-x="1671" arabic-form="isolated" 
d="M933 -361q100 0 173.5 17.5t121.5 55.5t71 99t23 148q-96 25 -188 50q-39 10 -82 21.5t-85.5 23t-83 21.5t-74.5 19q-47 114 -44 223.5t44 204.5t116 170.5t173 120.5t214 54.5t240 -26.5l-47 -181q-68 21 -138 20.5t-134.5 -20t-119.5 -56.5t-93.5 -88.5t-56 -116
t-7.5 -138.5l383 -95q80 -22 120 -72t40 -122q0 -131 -31 -229.5t-99 -163.5t-175.5 -98t-260.5 -33h-221q-76 0 -147 19t-134 53t-116 82t-93 106q-47 76 -71 167t-24 192q0 125 39.5 269.5t115.5 305.5q45 -21 84 -40.5t82 -40.5q-132 -282 -132 -489q0 -74 18 -141
t50 -121q51 -80 138 -125.5t190 -45.5h221v0z" />
    <glyph glyph-name="uni064A" unicode="&#x64a;" horiz-adv-x="1695" arabic-form="isolated" 
d="M933 -361q100 0 173.5 17.5t121.5 55.5t71 99t23 148q-96 25 -188 50q-39 10 -82 21.5t-85.5 23t-83 21.5t-74.5 19q-47 114 -44 223.5t44 204.5t116 170.5t173 120.5t214 54.5t240 -26.5l-47 -181q-68 21 -138 20.5t-134.5 -20t-119.5 -56.5t-93.5 -88.5t-56 -116
t-7.5 -138.5l383 -95q80 -22 120 -72t40 -122q0 -131 -31 -229.5t-99 -163.5t-175.5 -98t-260.5 -33h-221q-76 0 -147 19t-134 53t-116 82t-93 106q-47 76 -71 167t-24 192q0 125 39.5 269.5t115.5 305.5q45 -21 84 -40.5t82 -40.5q-132 -282 -132 -489q0 -74 18 -141
t50 -121q51 -80 138 -125.5t190 -45.5h221v0zM1192 -810l-162 -162l-156 162l158 160zM809 -812l-162 -162l-156 162l158 160z" />
    <glyph glyph-name="uni066E.init" unicode="&#x66e;" horiz-adv-x="671" 
d="M523 814q2 -6 8 -32t13.5 -64.5t16.5 -85t16 -94t12 -91.5t5 -77q0 -96 -31.5 -165.5t-82 -115t-113.5 -67.5t-127 -22h-255v189h255q15 0 42.5 4.5t55 22.5t48 54t20.5 100q0 22 -3.5 55.5t-9 72t-12.5 79t-14 76.5t-13 64t-10 42z" />
    <glyph glyph-name="uni066E.medi" unicode="&#x66e;" horiz-adv-x="782" 
d="M816 189v-189h-78q-91 0 -160.5 26t-111.5 78q-104 -104 -308 -104h-192v189h192q72 0 114 14.5t63.5 36t28 48t6.5 50.5v338h188v-331q0 -37 11 -63t28.5 -43.5t39 -27.5t41.5 -15t36 -6t24 -1h78z" />
    <glyph glyph-name="uni066E.fina" unicode="&#x66e;" horiz-adv-x="2220" 
d="M2255 188v-188h-46q-79 0 -153 30t-128 89q-46 -46 -116 -71q-52 -19 -121 -29t-158.5 -14.5t-202.5 -5.5t-253 -1q-102 0 -194 0.5t-173 4.5t-151 12.5t-130 24.5q-143 39 -215 123q-82 92 -82 244q0 51 7.5 102.5t16.5 94t16.5 70t8.5 29.5l180 -55l-6.5 -23t-14 -58
t-14 -77.5t-6.5 -82.5t8.5 -69.5t27 -51t48.5 -37t74 -27.5q102 -27 253 -31.5t346 -4.5q162 0 281.5 1t203.5 7.5t137.5 19.5t83.5 37t41 61t11 90v274h189v-311q0 -46 16.5 -79.5t42.5 -55t59.5 -32t66.5 -10.5h46z" />
    <glyph glyph-name="uni066F.init" unicode="&#x66f;" horiz-adv-x="1036" 
d="M-12 0v189h384q112 0 180.5 16t106.5 40t51.5 52.5t16.5 54.5h-152q-26 0 -58 2t-66.5 7.5t-69.5 16.5t-68 29q-27 16 -55 40t-50.5 59.5t-37 84t-14.5 113.5q0 81 28 153.5t80 124.5t119 79t143 27q87 0 160 -37t123 -106q54 -72 80 -178t26 -243v-138q0 -99 -39.5 -176
t-119.5 -125q-133 -85 -384 -85h-384zM526 899q-33 0 -67.5 -11.5t-62 -35t-45 -60.5t-17.5 -88q0 -33 7 -55.5t18 -37t23 -23.5t23 -15q29 -17 71 -24.5t99 -7.5h154q-2 99 -20.5 173t-50.5 121q-48 64 -132 64z" />
    <glyph glyph-name="uni066F.medi" unicode="&#x66f;" horiz-adv-x="1084" 
d="M565 246q45 16 81 40t61.5 56t39.5 73t14 93q0 30 -15.5 60t-42 54t-60.5 39t-71 15q-42 0 -80.5 -13.5t-68 -36t-46.5 -53.5t-17 -65q-2 -50 12.5 -91t41.5 -73t65.5 -56.5t85.5 -41.5zM572 865q86 0 154 -30t115 -79.5t72 -114t25 -133.5q0 -97 -27.5 -175t-83.5 -138
q76 -6 164 -6h116v-189h-116q-256 0 -428 48q-88 -24 -202 -36t-260 -12h-119v189h119q109 0 195 6q-59 61 -88 139.5t-29 173.5q0 73 30.5 138t84 114t125 77t153.5 28z" />
    <glyph glyph-name="uni066F.fina" unicode="&#x66f;" horiz-adv-x="1652" 
d="M794 -554h-100q-77 0 -148 17.5t-133.5 50.5t-114 81.5t-89.5 110.5q-54 85 -78 188.5t-17.5 221.5t43.5 247.5t105 267.5l170 -81q-56 -116 -88.5 -222.5t-40.5 -201.5t8 -176t57 -145q50 -81 135 -125.5t191 -44.5h90v2q151 0 254 23t163 71q52 42 76.5 107t24.5 162
h-184q-70 0 -142 21t-130.5 69t-95.5 125.5t-37 189.5q0 66 11.5 119.5t29 95.5t38.5 73t41 53q55 55 126 85t152 30q71 0 133 -22t111 -66q135 -126 135 -395v-189h187v-189h-187q0 -142 -41.5 -244.5t-128.5 -171.5t-214.5 -102t-311.5 -34v-2zM1111 672q-99 0 -154 -70
t-55 -197q0 -129 78 -179q19 -12 39 -19.5t39 -11t34.5 -5t25.5 -1.5h184v189q0 73 -11 123.5t-28 83.5t-38.5 50.5t-42.5 25.5t-40 9.5t-31 1.5z" />
    <glyph glyph-name="uni0671" unicode="&#x671;" horiz-adv-x="592" arabic-form="isolated" 
d="M393 0h-189v1277h189v-1277zM-14 1433l19 85h129l47 73l83 122q38 46 84 77t103 31q33 0 64.5 -12t56.5 -37.5t40.5 -64.5t15.5 -92q0 -51 -17 -85.5t-43 -56t-58.5 -31t-63.5 -9.5h-460zM446 1518q42 0 69 23t27 74q0 58 -23.5 89.5t-67.5 31.5q-32 0 -61 -20t-56 -51.5
t-51.5 -69.5t-45.5 -74q-1 -1 -1 -3h210z" />
    <glyph glyph-name="uni0672.fina" unicode="&#x672;" horiz-adv-x="647" 
d="M666 0q-95 1 -163.5 14.5t-116 39t-76 64t-44.5 90t-21 115.5t-5 142v809h189v-809q0 -87 5.5 -141t29 -83.5t71 -40t131.5 -11.5v-189zM273 1476q-37 0 -65.5 8t-51 17.5t-40 17t-33 6t-30.5 -15t-31 -45.5l-79 52q24 47 50 69.5t52.5 28.5t53.5 0t53.5 -16t51.5 -20.5
t49 -12.5q-17 18 -27.5 36.5t-16 35.5t-7.5 31.5t-2 25.5q0 39 15.5 73t41.5 59t60.5 39.5t72.5 14.5q44 0 83.5 -19.5t93.5 -52.5l-44 -76q-16 10 -33.5 20.5t-34.5 19t-33.5 14t-31.5 5.5q-18 0 -36.5 -6.5t-33 -19t-24 -30.5t-9.5 -41q0 -38 22 -63t57 -39.5t77 -20.5
t83 -6h58v-89h-311z" />
    <glyph glyph-name="uni0673.fina" unicode="&#x673;" horiz-adv-x="644" 
d="M652 0q-95 1 -163.5 14.5t-116 39t-76 64t-44.5 90t-21 115.5t-5 142v962h189v-962q0 -87 5.5 -141t29 -83.5t71 -40t131.5 -11.5v-189zM312 -519q-37 0 -65.5 8t-51 17.5t-40 17t-33 6t-30.5 -15t-31 -45.5l-79 52q24 47 50 69.5t52.5 28.5t53.5 0t53.5 -16t51.5 -20.5
t49 -12.5q-17 18 -27.5 36.5t-16 35.5t-7.5 31.5t-2 25.5q0 39 15.5 73t41.5 59t60.5 39.5t72.5 14.5q44 0 83.5 -19.5t93.5 -52.5l-44 -76q-16 10 -33.5 20.5t-34.5 19t-33.5 14t-31.5 5.5q-18 0 -36.5 -6.5t-33 -19t-24 -30.5t-9.5 -41q0 -38 22 -63t57 -39.5t77 -20.5
t83 -6h58v-89h-311z" />
    <glyph glyph-name="uni0675.fina" unicode="&#x675;" horiz-adv-x="647" 
d="M666 0q-95 1 -163.5 14.5t-116 39t-76 64t-44.5 90t-21 115.5t-5 142v809h189v-809q0 -87 5.5 -141t29 -83.5t71 -40t131.5 -11.5v-189zM485 857l9 127l124 37q-54 43 -74 104q-13 39 -7.5 79t25 74.5t51 60t69.5 36.5q27 9 54 9.5t52.5 -3t48.5 -11t43 -14.5l-25 -101
q-17 4 -36 8t-38 6.5t-36 2t-28 -4.5q-17 -6 -31.5 -16.5t-24 -24t-12.5 -30.5t3 -37t22.5 -36.5t44.5 -25.5t67 -9t92 14l85 25l34 -108z" />
    <glyph glyph-name="uni0676.fina" unicode="&#x676;" horiz-adv-x="1040" 
d="M194 -363q151 0 254 23t163 71q52 42 76.5 107t24.5 162h-184q-70 0 -142 21t-130.5 69t-95.5 125.5t-37 189.5q0 66 11.5 119.5t29 95.5t38.5 73t41 53q55 55 126 85t152 30q71 0 133 -22t111 -66q135 -126 135 -395v-189h150v-189h-150q0 -142 -41.5 -244.5
t-128.5 -171.5q-88 -69 -218.5 -102.5t-317.5 -33.5v189zM521 672q-99 0 -154 -70t-55 -197q0 -129 78 -179q19 -12 39 -19.5t39 -11t34.5 -5t25.5 -1.5h184v189q0 73 -11 123.5t-28 83.5t-38.5 50.5t-42.5 25.5t-40 9.5t-31 1.5zM622 934l9 127l124 37q-54 43 -74 104
q-13 39 -7.5 79t25 74.5t51 60t69.5 36.5q27 9 54 9.5t52.5 -3t48.5 -11t43 -14.5l-25 -101q-17 4 -36 8t-38 6.5t-36 2t-28 -4.5q-17 -6 -31.5 -16.5t-24 -24t-12.5 -30.5t3 -37t22.5 -36.5t44.5 -25.5t67 -9t92 14l85 25l34 -108z" />
    <glyph glyph-name="uni0677.fina" unicode="&#x677;" horiz-adv-x="1040" 
d="M194 -363q151 0 254 23t163 71q52 42 76.5 107t24.5 162h-184q-70 0 -142 21t-130.5 69t-95.5 125.5t-37 189.5q0 66 11.5 119.5t29 95.5t38.5 73t41 53q55 55 126 85t152 30q71 0 133 -22t111 -66q135 -126 135 -395v-189h150v-189h-150q0 -142 -41.5 -244.5
t-128.5 -171.5q-88 -69 -218.5 -102.5t-317.5 -33.5v189zM521 672q-99 0 -154 -70t-55 -197q0 -129 78 -179q19 -12 39 -19.5t39 -11t34.5 -5t25.5 -1.5h184v189q0 73 -11 123.5t-28 83.5t-38.5 50.5t-42.5 25.5t-40 9.5t-31 1.5zM681 961l9 127l124 37q-54 43 -74 104
q-13 39 -7.5 79t25 74.5t51 60t69.5 36.5q27 9 54 9.5t52.5 -3t48.5 -11t43 -14.5l-25 -101q-17 4 -36 8t-38 6.5t-36 2t-28 -4.5q-17 -6 -31.5 -16.5t-24 -24t-12.5 -30.5t3 -37t22.5 -36.5t44.5 -25.5t67 -9t92 14l85 25l34 -108zM-3 1007q24 7 61.5 18t79.5 27.5t83.5 38
t73.5 50.5q-22 11 -37.5 18t-31.5 15q-45 22 -69 50.5t-33.5 58.5t-6.5 58.5t12 48.5q15 31 42 57t59 41.5t67.5 18t67.5 -13.5q65 -32 86 -104q7 -27 11 -56t-1 -62.5t-21 -72.5t-48 -84q-23 -33 -57 -59.5t-72.5 -48t-78 -37.5t-72.5 -27.5t-57 -18t-32 -8.5zM305 1413
q-12 0 -26.5 -4t-28.5 -11.5t-25.5 -18t-18.5 -23.5q-1 0 -2.5 -9.5t3 -24t18 -31.5t42.5 -32q15 -8 33.5 -16.5t52.5 -24.5q15 29 18 71.5t-7 77.5q-8 19 -23 32.5t-36 13.5z" />
    <glyph glyph-name="uni0678.fina" unicode="&#x678;" horiz-adv-x="1780" 
d="M1515 0q42 -82 45.5 -155t-23.5 -134t-82 -110t-130 -82.5t-167 -52t-194 -18.5h-285q-158 0 -284 69t-206 191q-54 86 -77.5 190.5t-16.5 223t44.5 249.5t105.5 271l168 -82q-112 -236 -127.5 -427.5t65.5 -322.5q51 -83 136.5 -127t191.5 -44h285q56 0 110 8.5
t101 23.5t85 35.5t63.5 45.5t35.5 53.5t1 58.5q-12 39 -56 65.5t-106 42t-134 22t-139 6.5l7 189h862v-189h-279zM903 340l9 127l124 37q-54 43 -74 104q-13 39 -7.5 79t25 74.5t51 60t69.5 36.5q27 9 54 9.5t52.5 -3t48.5 -11t43 -14.5l-25 -101q-17 4 -36 8t-38 6.5t-36 2
t-28 -4.5q-17 -6 -31.5 -16.5t-24 -24t-12.5 -30.5t3 -37t22.5 -36.5t44.5 -25.5t67 -9t92 14l85 25l34 -108z" />
    <glyph glyph-name="uni0679" unicode="&#x679;" horiz-adv-x="2135" arabic-form="isolated" 
d="M1965 767q22 -87 40 -183t21 -204q2 -90 -23.5 -160.5t-72 -119.5t-111.5 -75t-143 -26l-603 -2q-135 0 -265.5 0.5t-244.5 15t-205.5 49t-147.5 100.5q-82 96 -82 244q0 51 7.5 102.5t16.5 94t16.5 70t8.5 29.5l180 -55l-6.5 -23t-14 -58t-14 -77.5t-6.5 -82.5
q0 -81 45.5 -126.5t139 -66.5t236 -25t336.5 -3l603 3q40 0 70.5 14t50.5 39t30 59.5t8 74.5q-2 94 -18.5 180t-36.5 167l185 45v0zM818 670v85h100l47 73v485h83v-363q38 46 84 77t103 31q33 0 64.5 -12t56.5 -37.5t40.5 -64.5t15.5 -92q0 -51 -17 -85.5t-43 -56t-58.5 -31
t-63.5 -9.5h-412zM1230 755q42 0 69 23t27 74q0 58 -23.5 89.5t-67.5 31.5q-32 0 -61 -20t-56 -51.5t-51.5 -69.5t-45.5 -74q-1 -1 -1 -3h210z" />
    <glyph glyph-name="uni067A.init" unicode="&#x67a;" horiz-adv-x="674" arabic-form="initial" 
d="M523 814q2 -6 8 -32t13.5 -64.5t16.5 -85t16 -94t12 -91.5t5 -77q0 -96 -31.5 -165.5t-82 -115t-113.5 -67.5t-127 -22h-255v189h255q15 0 42.5 4.5t55 22.5t48 54t20.5 100q0 22 -3.5 55.5t-9 72t-12.5 79t-14 76.5t-13 64t-10 42zM537 1478l-153 -151l-153 149l154 154
zM535 1091l-153 -151l-153 149l154 154z" />
    <glyph glyph-name="uni067A.medi" unicode="&#x67a;" horiz-adv-x="1052" arabic-form="medial" 
d="M1062 189v-189h-165q-91 0 -160.5 26t-111.5 78q-104 -104 -308 -104h-330v189h330q72 0 114 14.5t63.5 36t28 48t6.5 50.5v338h188v-331q0 -37 11.5 -63t28.5 -43.5t38.5 -27.5t41.5 -15t36 -6t24 -1h165zM793 1402l-153 -151l-153 149l154 154zM791 1015l-153 -151
l-153 149l154 154z" />
    <glyph glyph-name="uni067A.fina" unicode="&#x67a;" horiz-adv-x="2248" arabic-form="final" 
d="M2255 188v-188h-46q-79 0 -153 30t-128 89q-46 -46 -116 -71q-52 -19 -121 -29t-158.5 -14.5t-202.5 -5.5t-253 -1q-102 0 -194 0.5t-173 4.5t-151 12.5t-130 24.5q-143 39 -215 123q-82 92 -82 244q0 51 7.5 102.5t16.5 94t16.5 70t8.5 29.5l180 -55l-6.5 -23t-14 -58
t-14 -77.5t-6.5 -82.5t8.5 -69.5t27 -51t48.5 -37t74 -27.5q102 -27 253 -31.5t346 -4.5q162 0 281.5 1t203.5 7.5t137.5 19.5t83.5 37t41 61t11 90v274h189v-311q0 -46 16.5 -79.5t42.5 -55t59.5 -32t66.5 -10.5h46zM1219 1147l-153 -151l-153 149l154 154zM1217 760
l-153 -151l-153 149l154 154z" />
    <glyph glyph-name="uni067B.init" unicode="&#x67b;" horiz-adv-x="712" arabic-form="initial" 
d="M523 814q2 -6 8 -32t13.5 -64.5t16.5 -85t16 -94t12 -91.5t5 -77q0 -96 -31.5 -165.5t-82 -115t-113.5 -67.5t-127 -22h-255v189h255q15 0 42.5 4.5t55 22.5t48 54t20.5 100q0 22 -3.5 55.5t-9 72t-12.5 79t-14 76.5t-13 64t-10 42zM516 -304l-153 -151l-153 149l154 154
zM514 -691l-153 -151l-153 149l154 154z" />
    <glyph glyph-name="uni067B.medi" unicode="&#x67b;" horiz-adv-x="816" arabic-form="medial" 
d="M833 189v-189h-78q-91 0 -160.5 26t-111.5 78q-104 -104 -308 -104h-192v189h192q72 0 114 14.5t63.5 36t28 48t6.5 50.5v338h188v-331q0 -37 11 -63t28.5 -43.5t39 -27.5t41.5 -15t36 -6t24 -1h78zM621 -304l-153 -151l-153 149l154 154zM619 -691l-153 -151l-153 149
l154 154z" />
    <glyph glyph-name="uni067B.fina" unicode="&#x67b;" horiz-adv-x="2248" arabic-form="final" 
d="M2255 188v-188h-46q-79 0 -153 30t-128 89q-46 -46 -116 -71q-52 -19 -121 -29t-158.5 -14.5t-202.5 -5.5t-253 -1q-102 0 -194 0.5t-173 4.5t-151 12.5t-130 24.5q-143 39 -215 123q-82 92 -82 244q0 51 7.5 102.5t16.5 94t16.5 70t8.5 29.5l180 -55l-6.5 -23t-14 -58
t-14 -77.5t-6.5 -82.5t8.5 -69.5t27 -51t48.5 -37t74 -27.5q102 -27 253 -31.5t346 -4.5q162 0 281.5 1t203.5 7.5t137.5 19.5t83.5 37t41 61t11 90v274h189v-311q0 -46 16.5 -79.5t42.5 -55t59.5 -32t66.5 -10.5h46zM1199 -318l-153 -151l-153 149l154 154zM1197 -705
l-153 -151l-153 149l154 154z" />
    <glyph glyph-name="uni067C.init" unicode="&#x67c;" horiz-adv-x="868" 
d="M675 814q2 -6 8 -32t13.5 -64.5t16.5 -85t16 -94t12 -91.5t5 -77q0 -96 -31.5 -165.5t-82 -115t-113.5 -67.5t-127 -22h-414v189h414q15 0 42.5 4.5t55 22.5t48 54t20.5 100q0 22 -3.5 55.5t-9 72t-12.5 79t-14 76.5t-13 64t-10 42zM383 -353q-51 0 -92 15t-70.5 42.5
t-45 67.5t-15.5 90q0 51 16 90.5t45 67.5t70 42.5t92 14.5q102 0 166 -59q63 -59 63 -154q0 -100 -63 -158q-64 -59 -166 -59zM383 -250q49 0 81 29t32 83t-32 83.5t-81 29.5q-51 0 -82 -29.5t-31 -83.5q0 -112 113 -112zM707 1026l-158 160l156 162l162 -162zM324 1028
l-158 160l156 162l162 -162z" />
    <glyph glyph-name="uni067C.medi" unicode="&#x67c;" horiz-adv-x="1048" 
d="M1062 189v-189h-165q-91 0 -160.5 26t-111.5 78q-104 -104 -308 -104h-330v189h330q72 0 114 14.5t63.5 36t28 48t6.5 50.5v338h188v-331q0 -37 11.5 -63t28.5 -43.5t38.5 -27.5t41.5 -15t36 -6t24 -1h165zM636 -288q-51 0 -92 15t-70.5 42.5t-45 67.5t-15.5 90
q0 51 16 90.5t45 67.5t70 42.5t92 14.5q102 0 166 -59q63 -59 63 -154q0 -100 -63 -158q-64 -59 -166 -59zM636 -185q49 0 81 29t32 83t-32 83.5t-81 29.5q-51 0 -82 -29.5t-31 -83.5q0 -112 113 -112zM706 949l-158 160l156 162l162 -162zM323 951l-158 160l156 162
l162 -162z" />
    <glyph glyph-name="uni067C.fina" unicode="&#x67c;" horiz-adv-x="2248" 
d="M2255 188v-188h-46q-79 0 -153 30t-128 89q-46 -46 -116 -71q-52 -19 -121 -29t-158.5 -14.5t-202.5 -5.5t-253 -1q-102 0 -194 0.5t-173 4.5t-151 12.5t-130 24.5q-143 39 -215 123q-82 92 -82 244q0 51 7.5 102.5t16.5 94t16.5 70t8.5 29.5l180 -55l-6.5 -23t-14 -58
t-14 -77.5t-6.5 -82.5t8.5 -69.5t27 -51t48.5 -37t74 -27.5q102 -27 253 -31.5t346 -4.5q162 0 281.5 1t203.5 7.5t137.5 19.5t83.5 37t41 61t11 90v274h189v-311q0 -46 16.5 -79.5t42.5 -55t59.5 -32t66.5 -10.5h46zM1257 766l-158 160l156 162l162 -162zM874 768l-158 160
l156 162l162 -162zM1039 -359q-51 0 -92 15t-70.5 42.5t-45 67.5t-15.5 90q0 51 16 90.5t45 67.5t70 42.5t92 14.5q102 0 166 -59q63 -59 63 -154q0 -100 -63 -158q-64 -59 -166 -59zM1039 -256q49 0 81 29t32 83t-32 83.5t-81 29.5q-51 0 -82 -29.5t-31 -83.5
q0 -112 113 -112z" />
    <glyph glyph-name="uni067D.init" unicode="&#x67d;" horiz-adv-x="858" 
d="M675 814q2 -6 8 -32t13.5 -64.5t16.5 -85t16 -94t12 -91.5t5 -77q0 -96 -31.5 -165.5t-82 -115t-113.5 -67.5t-127 -22h-414v189h414q15 0 42.5 4.5t55 22.5t48 54t20.5 100q0 22 -3.5 55.5t-9 72t-12.5 79t-14 76.5t-13 64t-10 42zM404 904l-144 143l140 139l142 -139z
M751 1339l-162 -162l-156 162l158 160zM368 1337l-162 -162l-156 162l158 160z" />
    <glyph glyph-name="uni067D.medi" unicode="&#x67d;" horiz-adv-x="1048" 
d="M1062 189v-189h-165q-91 0 -160.5 26t-111.5 78q-104 -104 -308 -104h-330v189h330q72 0 114 14.5t63.5 36t28 48t6.5 50.5v338h188v-331q0 -37 11.5 -63t28.5 -43.5t38.5 -27.5t41.5 -15t36 -6t24 -1h165zM640 818l-144 143l140 139l142 -139zM987 1253l-162 -162
l-156 162l158 160zM604 1251l-162 -162l-156 162l158 160z" />
    <glyph glyph-name="uni067D.fina" unicode="&#x67d;" horiz-adv-x="2248" 
d="M2255 188v-188h-46q-79 0 -153 30t-128 89q-46 -46 -116 -71q-52 -19 -121 -29t-158.5 -14.5t-202.5 -5.5t-253 -1q-102 0 -194 0.5t-173 4.5t-151 12.5t-130 24.5q-143 39 -215 123q-82 92 -82 244q0 51 7.5 102.5t16.5 94t16.5 70t8.5 29.5l180 -55l-6.5 -23t-14 -58
t-14 -77.5t-6.5 -82.5t8.5 -69.5t27 -51t48.5 -37t74 -27.5q102 -27 253 -31.5t346 -4.5q162 0 281.5 1t203.5 7.5t137.5 19.5t83.5 37t41 61t11 90v274h189v-311q0 -46 16.5 -79.5t42.5 -55t59.5 -32t66.5 -10.5h46zM1078 592l-144 143l140 139l142 -139zM1425 1027
l-162 -162l-156 162l158 160zM1042 1025l-162 -162l-156 162l158 160z" />
    <glyph glyph-name="uni067E" unicode="&#x67e;" horiz-adv-x="2106" arabic-form="isolated" 
d="M1965 767q22 -87 40 -183t21 -204q2 -90 -23.5 -160.5t-72 -119.5t-111.5 -75t-143 -26l-603 -2q-135 0 -265.5 0.5t-244.5 15t-205.5 49t-147.5 100.5q-82 96 -82 244q0 51 7.5 102.5t16.5 94t16.5 70t8.5 29.5l180 -55l-6.5 -23t-14 -58t-14 -77.5t-6.5 -82.5
q0 -81 45.5 -126.5t139 -66.5t236 -25t336.5 -3l603 3q40 0 70.5 14t50.5 39t30 59.5t8 74.5q-2 94 -18.5 180t-36.5 167l185 45v0zM1083 -787l-144 143l140 139l142 -139zM1430 -352l-162 -162l-156 162l158 160zM1047 -354l-162 -162l-156 162l158 160z" />
    <glyph glyph-name="uni067F.init" unicode="&#x67f;" horiz-adv-x="849" arabic-form="initial" 
d="M675 814q2 -6 8 -32t13.5 -64.5t16.5 -85t16 -94t12 -91.5t5 -77q0 -96 -31.5 -165.5t-82 -115t-113.5 -67.5t-127 -22h-414v189h414q15 0 42.5 4.5t55 22.5t48 54t20.5 100q0 22 -3.5 55.5t-9 72t-12.5 79t-14 76.5t-13 64t-10 42zM594 954l-138 139l136 141l141 -141z
M234 956l-137 139l136 141l141 -142zM594 1286l-138 141l136 139l141 -140zM234 1288l-137 140l136 140l141 -141z" />
    <glyph glyph-name="uni067F.medi" unicode="&#x67f;" horiz-adv-x="1052" arabic-form="medial" 
d="M1062 189v-189h-165q-91 0 -160.5 26t-111.5 78q-104 -104 -308 -104h-330v189h330q72 0 114 14.5t63.5 36t28 48t6.5 50.5v338h188v-331q0 -37 11.5 -63t28.5 -43.5t38.5 -27.5t41.5 -15t36 -6t24 -1h165zM800 793l-138 139l136 141l141 -141zM440 795l-137 139l136 141
l141 -142zM800 1125l-138 141l136 139l141 -140zM440 1127l-137 140l136 140l141 -141z" />
    <glyph glyph-name="uni067F.fina" unicode="&#x67f;" horiz-adv-x="2248" arabic-form="final" 
d="M2255 188v-188h-46q-79 0 -153 30t-128 89q-46 -46 -116 -71q-52 -19 -121 -29t-158.5 -14.5t-202.5 -5.5t-253 -1q-102 0 -194 0.5t-173 4.5t-151 12.5t-130 24.5q-143 39 -215 123q-82 92 -82 244q0 51 7.5 102.5t16.5 94t16.5 70t8.5 29.5l180 -55l-6.5 -23t-14 -58
t-14 -77.5t-6.5 -82.5t8.5 -69.5t27 -51t48.5 -37t74 -27.5q102 -27 253 -31.5t346 -4.5q162 0 281.5 1t203.5 7.5t137.5 19.5t83.5 37t41 61t11 90v274h189v-311q0 -46 16.5 -79.5t42.5 -55t59.5 -32t66.5 -10.5h46zM1225 603l-138 139l136 141l141 -141zM865 605l-137 139
l136 141l141 -142zM1225 935l-138 141l136 139l141 -140zM865 937l-137 140l136 140l141 -141z" />
    <glyph glyph-name="uni0680.init" unicode="&#x680;" horiz-adv-x="844" arabic-form="initial" 
d="M675 814q2 -6 8 -32t13.5 -64.5t16.5 -85t16 -94t12 -91.5t5 -77q0 -96 -31.5 -165.5t-82 -115t-113.5 -67.5t-127 -22h-414v189h414q15 0 42.5 4.5t55 22.5t48 54t20.5 100q0 22 -3.5 55.5t-9 72t-12.5 79t-14 76.5t-13 64t-10 42zM564 -785l-138 139l136 141l141 -141z
M204 -783l-137 139l136 141l141 -142zM564 -453l-138 141l136 139l141 -140zM204 -451l-137 140l136 140l141 -141z" />
    <glyph glyph-name="uni0680.medi" unicode="&#x680;" horiz-adv-x="1052" arabic-form="medial" 
d="M1062 189v-189h-165q-91 0 -160.5 26t-111.5 78q-104 -104 -308 -104h-330v189h330q72 0 114 14.5t63.5 36t28 48t6.5 50.5v338h188v-331q0 -37 11.5 -63t28.5 -43.5t38.5 -27.5t41.5 -15t36 -6t24 -1h165zM819 -785l-138 139l136 141l141 -141zM459 -783l-137 139
l136 141l141 -142zM819 -453l-138 141l136 139l141 -140zM459 -451l-137 140l136 140l141 -141z" />
    <glyph glyph-name="uni0680.fina" unicode="&#x680;" horiz-adv-x="2248" arabic-form="final" 
d="M2255 188v-188h-46q-79 0 -153 30t-128 89q-46 -46 -116 -71q-52 -19 -121 -29t-158.5 -14.5t-202.5 -5.5t-253 -1q-102 0 -194 0.5t-173 4.5t-151 12.5t-130 24.5q-143 39 -215 123q-82 92 -82 244q0 51 7.5 102.5t16.5 94t16.5 70t8.5 29.5l180 -55l-6.5 -23t-14 -58
t-14 -77.5t-6.5 -82.5t8.5 -69.5t27 -51t48.5 -37t74 -27.5q102 -27 253 -31.5t346 -4.5q162 0 281.5 1t203.5 7.5t137.5 19.5t83.5 37t41 61t11 90v274h189v-311q0 -46 16.5 -79.5t42.5 -55t59.5 -32t66.5 -10.5h46zM1224 -789l-138 139l136 141l141 -141zM864 -787
l-137 139l136 141l141 -142zM1224 -457l-138 141l136 139l141 -140zM864 -455l-137 140l136 140l141 -141z" />
    <glyph glyph-name="uni0681.init" unicode="&#x681;" horiz-adv-x="1452" 
d="M1288 400q-6 -4 -52 -35t-122.5 -75.5t-178.5 -95.5t-219.5 -94t-245.5 -71.5t-256 -28.5h-224v189h224q112 0 226.5 26.5t220.5 66t199 86t163 87.5q-97 39 -193.5 76t-176.5 65.5t-137.5 46.5t-76.5 21q-17 0 -35.5 -3t-36.5 -18t-35 -46.5t-32 -88.5l-183 48
q77 296 324 296q6 0 16 -0.5t29 -5t51 -14t81.5 -26.5t120.5 -43.5t170 -65.5l354 -131zM159 936l9 127l124 37q-54 43 -74 104q-13 39 -7.5 79t25 74.5t51 60t69.5 36.5q27 9 54 9.5t52.5 -3t48.5 -11t43 -14.5l-25 -101q-17 4 -36 8t-38 6.5t-36 2t-28 -4.5
q-17 -6 -31.5 -16.5t-24 -24t-12.5 -30.5t3 -37t22.5 -36.5t44.5 -25.5t67 -9t92 14l85 25l34 -108z" />
    <glyph glyph-name="uni0681.medi" unicode="&#x681;" horiz-adv-x="1533" 
d="M1335 400q-6 -4 -50 -34t-117 -73q11 -37 35.5 -57.5t51.5 -31t51 -13t34 -2.5h210v-189h-210q-73 0 -136.5 21.5t-114.5 63.5q-58 49 -88 118q-77 -38 -165 -74.5t-182.5 -65t-194 -46t-198.5 -17.5h-281v189h281q112 0 226.5 26.5t220.5 66t199 86t163 87.5
q-97 39 -193.5 76t-176.5 65.5t-137.5 46.5t-76.5 21q-17 0 -35.5 -3t-36.5 -18t-35 -46.5t-32 -88.5l-183 48q77 296 324 296q7 0 16.5 -0.5t29 -5t50.5 -14t81 -26.5t121 -43.5t170 -65.5l354 -131zM159 936l9 127l124 37q-54 43 -74 104q-13 39 -7.5 79t25 74.5t51 60
t69.5 36.5q27 9 54 9.5t52.5 -3t48.5 -11t43 -14.5l-25 -101q-17 4 -36 8t-38 6.5t-36 2t-28 -4.5q-17 -6 -31.5 -16.5t-24 -24t-12.5 -30.5t3 -37t22.5 -36.5t44.5 -25.5t67 -9t92 14l85 25l34 -108z" />
    <glyph glyph-name="uni0681.fina" unicode="&#x681;" horiz-adv-x="1584" 
d="M1342 397q-3 -1 -40.5 -16t-128.5 -49q12 -37 32 -64t43 -44.5t48 -26t47 -8.5h253v-189h-253q-74 0 -132 18.5t-101 52.5t-72 83t-44 110l-262 -97q-108 -40 -185 -74t-128 -64.5t-79.5 -60t-41.5 -60t-14 -65.5t5 -76q13 -105 54 -171t104.5 -102.5t148.5 -50
t186 -13.5h459v-189h-459q-46 0 -97.5 2.5t-105 11t-107.5 24.5t-105 43q-226 122 -265 420q-16 121 11.5 209.5t101.5 159.5q70 67 182.5 120.5t269.5 111.5l427 152q-97 39 -195.5 73.5t-181 61t-142 42.5t-78.5 19q-17 0 -35.5 -3t-36.5 -18t-35 -46.5t-32 -88.5l-183 48
q77 296 324 296q7 0 16.5 -0.5t29 -5t50.5 -14t81 -26.5t121 -43.5t170 -65.5l368 -150zM220 947l9 127l124 37q-54 43 -74 104q-13 39 -7.5 79t25 74.5t51 60t69.5 36.5q27 9 54 9.5t52.5 -3t48.5 -11t43 -14.5l-25 -101q-17 4 -36 8t-38 6.5t-36 2t-28 -4.5
q-17 -6 -31.5 -16.5t-24 -24t-12.5 -30.5t3 -37t22.5 -36.5t44.5 -25.5t67 -9t92 14l85 25l34 -108z" />
    <glyph glyph-name="uni0682.init" unicode="&#x682;" horiz-adv-x="1438" 
d="M1288 400q-6 -4 -52 -35t-122.5 -75.5t-178.5 -95.5t-219.5 -94t-245.5 -71.5t-256 -28.5h-224v189h224q112 0 226.5 26.5t220.5 66t199 86t163 87.5q-97 39 -193.5 76t-176.5 65.5t-137.5 46.5t-76.5 21q-17 0 -35.5 -3t-36.5 -18t-35 -46.5t-32 -88.5l-183 48
q77 296 324 296q6 0 16 -0.5t29 -5t51 -14t81.5 -26.5t120.5 -43.5t170 -65.5l354 -131zM583 1582l-153 -151l-153 149l154 154zM581 1195l-153 -151l-153 149l154 154z" />
    <glyph glyph-name="uni0682.medi" unicode="&#x682;" horiz-adv-x="1533" 
d="M1335 400q-6 -4 -50 -34t-117 -73q11 -37 35.5 -57.5t51.5 -31t51 -13t34 -2.5h210v-189h-210q-73 0 -136.5 21.5t-114.5 63.5q-58 49 -88 118q-77 -38 -165 -74.5t-182.5 -65t-194 -46t-198.5 -17.5h-281v189h281q112 0 226.5 26.5t220.5 66t199 86t163 87.5
q-97 39 -193.5 76t-176.5 65.5t-137.5 46.5t-76.5 21q-17 0 -35.5 -3t-36.5 -18t-35 -46.5t-32 -88.5l-183 48q77 296 324 296q7 0 16.5 -0.5t29 -5t50.5 -14t81 -26.5t121 -43.5t170 -65.5l354 -131zM592 1586l-153 -151l-153 149l154 154zM590 1199l-153 -151l-153 149
l154 154z" />
    <glyph glyph-name="uni0682.fina" unicode="&#x682;" horiz-adv-x="1584" 
d="M1342 397q-3 -1 -40.5 -16t-128.5 -49q12 -37 32 -64t43 -44.5t48 -26t47 -8.5h253v-189h-253q-74 0 -132 18.5t-101 52.5t-72 83t-44 110l-262 -97q-108 -40 -185 -74t-128 -64.5t-79.5 -60t-41.5 -60t-14 -65.5t5 -76q13 -105 54 -171t104.5 -102.5t148.5 -50
t186 -13.5h459v-189h-459q-46 0 -97.5 2.5t-105 11t-107.5 24.5t-105 43q-226 122 -265 420q-16 121 11.5 209.5t101.5 159.5q70 67 182.5 120.5t269.5 111.5l427 152q-97 39 -195.5 73.5t-181 61t-142 42.5t-78.5 19q-17 0 -35.5 -3t-36.5 -18t-35 -46.5t-32 -88.5l-183 48
q77 296 324 296q7 0 16.5 -0.5t29 -5t50.5 -14t81 -26.5t121 -43.5t170 -65.5l368 -150zM607 1586l-153 -151l-153 149l154 154zM605 1199l-153 -151l-153 149l154 154z" />
    <glyph glyph-name="uni0683.init" unicode="&#x683;" horiz-adv-x="1408" arabic-form="initial" 
d="M1293 400q-6 -4 -52 -35t-122.5 -75.5t-178.5 -95.5t-219.5 -94t-245.5 -71.5t-256 -28.5h-224v189h224q112 0 226.5 26.5t220.5 66t199 86t163 87.5q-97 39 -193.5 76t-176.5 65.5t-137.5 46.5t-76.5 21q-17 0 -35.5 -3t-36.5 -18t-35 -46.5t-32 -88.5l-183 48
q77 296 324 296q6 0 16 -0.5t29 -5t51 -14t81.5 -26.5t120.5 -43.5t170 -65.5l354 -131zM1075 -306l-162 -162l-156 162l158 160zM692 -308l-162 -162l-156 162l158 160z" />
    <glyph glyph-name="uni0683.medi" unicode="&#x683;" horiz-adv-x="1533" arabic-form="medial" 
d="M1335 400q-6 -4 -50 -34t-117 -73q11 -37 35.5 -57.5t51.5 -31t51 -13t34 -2.5h210v-189h-210q-73 0 -136.5 21.5t-114.5 63.5q-58 49 -88 118q-77 -38 -165 -74.5t-182.5 -65t-194 -46t-198.5 -17.5h-281v189h281q112 0 226.5 26.5t220.5 66t199 86t163 87.5
q-97 39 -193.5 76t-176.5 65.5t-137.5 46.5t-76.5 21q-17 0 -35.5 -3t-36.5 -18t-35 -46.5t-32 -88.5l-183 48q77 296 324 296q7 0 16.5 -0.5t29 -5t50.5 -14t81 -26.5t121 -43.5t170 -65.5l354 -131zM1075 -306l-162 -162l-156 162l158 160zM692 -308l-162 -162l-156 162
l158 160z" />
    <glyph glyph-name="uni0683.fina" unicode="&#x683;" horiz-adv-x="1584" arabic-form="final" 
d="M1342 397q-3 -1 -40.5 -16t-128.5 -49q12 -37 32 -64t43 -44.5t48 -26t47 -8.5h253v-189h-253q-74 0 -132 18.5t-101 52.5t-72 83t-44 110l-262 -97q-108 -40 -185 -74t-128 -64.5t-79.5 -60t-41.5 -60t-14 -65.5t5 -76q13 -105 54 -171t104.5 -102.5t148.5 -50
t186 -13.5h459v-189h-459q-46 0 -97.5 2.5t-105 11t-107.5 24.5t-105 43q-226 122 -265 420q-16 121 11.5 209.5t101.5 159.5q70 67 182.5 120.5t269.5 111.5l427 152q-97 39 -195.5 73.5t-181 61t-142 42.5t-78.5 19q-17 0 -35.5 -3t-36.5 -18t-35 -46.5t-32 -88.5l-183 48
q77 296 324 296q7 0 16.5 -0.5t29 -5t50.5 -14t81 -26.5t121 -43.5t170 -65.5l368 -150zM1160 -232l-162 -162l-156 162l158 160zM777 -234l-162 -162l-156 162l158 160z" />
    <glyph glyph-name="uni0684.init" unicode="&#x684;" horiz-adv-x="1443" arabic-form="initial" 
d="M1288 400q-6 -4 -52 -35t-122.5 -75.5t-178.5 -95.5t-219.5 -94t-245.5 -71.5t-256 -28.5h-224v189h224q112 0 226.5 26.5t220.5 66t199 86t163 87.5q-97 39 -193.5 76t-176.5 65.5t-137.5 46.5t-76.5 21q-17 0 -35.5 -3t-36.5 -18t-35 -46.5t-32 -88.5l-183 48
q77 296 324 296q6 0 16 -0.5t29 -5t51 -14t81.5 -26.5t120.5 -43.5t170 -65.5l354 -131zM815 -294l-153 -151l-153 149l154 154zM813 -681l-153 -151l-153 149l154 154z" />
    <glyph glyph-name="uni0684.medi" unicode="&#x684;" horiz-adv-x="1533" arabic-form="medial" 
d="M1335 400q-6 -4 -50 -34t-117 -73q11 -37 35.5 -57.5t51.5 -31t51 -13t34 -2.5h210v-189h-210q-73 0 -136.5 21.5t-114.5 63.5q-58 49 -88 118q-77 -38 -165 -74.5t-182.5 -65t-194 -46t-198.5 -17.5h-281v189h281q112 0 226.5 26.5t220.5 66t199 86t163 87.5
q-97 39 -193.5 76t-176.5 65.5t-137.5 46.5t-76.5 21q-17 0 -35.5 -3t-36.5 -18t-35 -46.5t-32 -88.5l-183 48q77 296 324 296q7 0 16.5 -0.5t29 -5t50.5 -14t81 -26.5t121 -43.5t170 -65.5l354 -131zM815 -294l-153 -151l-153 149l154 154zM813 -681l-153 -151l-153 149
l154 154z" />
    <glyph glyph-name="uni0684.fina" unicode="&#x684;" horiz-adv-x="1575" arabic-form="final" 
d="M1064 474l105 8q0 -87 11 -143.5t32 -89.5t52 -46.5t71 -13.5h253v-189h-253q-63 0 -124.5 21t-110.5 69.5t-79.5 127.5t-30.5 196zM1342 532q-2 -1 -38 -12.5t-113.5 -38t-201 -70t-300.5 -109.5q-111 -41 -188 -77.5t-126.5 -72t-75.5 -72t-36 -77t-7.5 -87.5t9.5 -104
q15 -117 53 -198.5t98 -131.5t141 -72.5t182 -22.5h502v-189h-502q-143 0 -256.5 33t-196.5 104t-135 182.5t-73 269.5q-21 160 5 269.5t96 187t182 132t263 102.5l462 150q-97 39 -194 74t-178.5 61.5t-139.5 43t-77 19.5q-17 0 -35.5 -3t-36.5 -18t-35 -46.5t-32 -88.5
l-183 48q77 296 324 296q7 0 16.5 -0.5t29 -5t50.5 -14t81 -26.5t121 -43.5t170 -65.5l368 -150zM935 70l-153 -151l-153 149l154 154zM933 -317l-153 -151l-153 149l154 154z" />
    <glyph glyph-name="uni0685.init" unicode="&#x685;" horiz-adv-x="1429" 
d="M1288 400q-6 -4 -52 -35t-122.5 -75.5t-178.5 -95.5t-219.5 -94t-245.5 -71.5t-256 -28.5h-224v189h224q112 0 226.5 26.5t220.5 66t199 86t163 87.5q-97 39 -193.5 76t-176.5 65.5t-137.5 46.5t-76.5 21q-17 0 -35.5 -3t-36.5 -18t-35 -46.5t-32 -88.5l-183 48
q77 296 324 296q6 0 16 -0.5t29 -5t51 -14t81.5 -26.5t120.5 -43.5t170 -65.5l354 -131zM674 1451l-142 -139l-140 139l144 143zM723 999l-158 160l156 162l162 -162zM340 1001l-158 160l156 162l162 -162z" />
    <glyph glyph-name="uni0685.medi" unicode="&#x685;" horiz-adv-x="1533" 
d="M1335 400q-6 -4 -50 -34t-117 -73q11 -37 35.5 -57.5t51.5 -31t51 -13t34 -2.5h210v-189h-210q-73 0 -136.5 21.5t-114.5 63.5q-58 49 -88 118q-77 -38 -165 -74.5t-182.5 -65t-194 -46t-198.5 -17.5h-281v189h281q112 0 226.5 26.5t220.5 66t199 86t163 87.5
q-97 39 -193.5 76t-176.5 65.5t-137.5 46.5t-76.5 21q-17 0 -35.5 -3t-36.5 -18t-35 -46.5t-32 -88.5l-183 48q77 296 324 296q7 0 16.5 -0.5t29 -5t50.5 -14t81 -26.5t121 -43.5t170 -65.5l354 -131zM674 1451l-142 -139l-140 139l144 143zM723 999l-158 160l156 162
l162 -162zM340 1001l-158 160l156 162l162 -162z" />
    <glyph glyph-name="uni0685.fina" unicode="&#x685;" horiz-adv-x="1584" 
d="M1342 397q-3 -1 -40.5 -16t-128.5 -49q12 -37 32 -64t43 -44.5t48 -26t47 -8.5h253v-189h-253q-74 0 -132 18.5t-101 52.5t-72 83t-44 110l-262 -97q-108 -40 -185 -74t-128 -64.5t-79.5 -60t-41.5 -60t-14 -65.5t5 -76q13 -105 54 -171t104.5 -102.5t148.5 -50
t186 -13.5h459v-189h-459q-46 0 -97.5 2.5t-105 11t-107.5 24.5t-105 43q-226 122 -265 420q-16 121 11.5 209.5t101.5 159.5q70 67 182.5 120.5t269.5 111.5l427 152q-97 39 -195.5 73.5t-181 61t-142 42.5t-78.5 19q-17 0 -35.5 -3t-36.5 -18t-35 -46.5t-32 -88.5l-183 48
q77 296 324 296q7 0 16.5 -0.5t29 -5t50.5 -14t81 -26.5t121 -43.5t170 -65.5l368 -150zM722 1521l-142 -139l-140 139l144 143zM771 1069l-158 160l156 162l162 -162zM388 1071l-158 160l156 162l162 -162z" />
    <glyph glyph-name="uni0686" unicode="&#x686;" horiz-adv-x="1455" arabic-form="isolated" 
d="M1369 591q-2 -1 -38 -12.5t-113.5 -38t-201 -70t-300.5 -109.5q-111 -41 -188 -77.5t-126.5 -72t-75.5 -72t-36 -77t-7.5 -87.5t9.5 -104q15 -117 53 -198.5t98 -131.5t141 -72.5t182 -22.5h502v-189h-502q-143 0 -256.5 33t-196.5 104t-135 182.5t-73 269.5
q-21 160 5 269.5t96 187t182 132t263 102.5l462 150q-97 39 -194 74t-178.5 61.5t-139.5 43t-77 19.5q-17 0 -35.5 -3t-36.5 -18t-35 -46.5t-32 -88.5l-183 48q77 296 324 296q7 0 16.5 -0.5t29 -5t50.5 -14t81 -26.5t121 -43.5t170 -65.5l368 -150zM932.949 -400.057
l-136.661 135.86l132.865 132.06l134.763 -132.06zM1262.26 13.2246l-153.744 -153.912l-148.05 153.912l149.948 152.012zM898.784 11.3242l-153.744 -153.911l-148.05 153.911l149.948 152.012z" />
    <glyph glyph-name="uni0687.init" unicode="&#x687;" horiz-adv-x="1400" arabic-form="initial" 
d="M1288 400q-6 -4 -52 -35t-122.5 -75.5t-178.5 -95.5t-219.5 -94t-245.5 -71.5t-256 -28.5h-224v189h224q112 0 226.5 26.5t220.5 66t199 86t163 87.5q-97 39 -193.5 76t-176.5 65.5t-137.5 46.5t-76.5 21q-17 0 -35.5 -3t-36.5 -18t-35 -46.5t-32 -88.5l-183 48
q77 296 324 296q6 0 16 -0.5t29 -5t51 -14t81.5 -26.5t120.5 -43.5t170 -65.5l354 -131zM972 -756l-138 139l136 141l141 -141zM612 -754l-137 139l136 141l141 -142zM972 -424l-138 141l136 139l141 -140zM612 -422l-137 140l136 140l141 -141z" />
    <glyph glyph-name="uni0687.medi" unicode="&#x687;" horiz-adv-x="1533" arabic-form="medial" 
d="M1335 400q-6 -4 -50 -34t-117 -73q11 -37 35.5 -57.5t51.5 -31t51 -13t34 -2.5h210v-189h-210q-73 0 -136.5 21.5t-114.5 63.5q-58 49 -88 118q-77 -38 -165 -74.5t-182.5 -65t-194 -46t-198.5 -17.5h-281v189h281q112 0 226.5 26.5t220.5 66t199 86t163 87.5
q-97 39 -193.5 76t-176.5 65.5t-137.5 46.5t-76.5 21q-17 0 -35.5 -3t-36.5 -18t-35 -46.5t-32 -88.5l-183 48q77 296 324 296q7 0 16.5 -0.5t29 -5t50.5 -14t81 -26.5t121 -43.5t170 -65.5l354 -131zM967 -776l-138 139l136 141l141 -141zM607 -774l-137 139l136 141
l141 -142zM967 -444l-138 141l136 139l141 -140zM607 -442l-137 140l136 140l141 -141z" />
    <glyph glyph-name="uni0687.fina" unicode="&#x687;" horiz-adv-x="1570" arabic-form="final" 
d="M1064 474l105 8q0 -87 11 -143.5t32 -89.5t52 -46.5t71 -13.5h253v-189h-253q-63 0 -124.5 21t-110.5 69.5t-79.5 127.5t-30.5 196zM1342 532q-2 -1 -38 -12.5t-113.5 -38t-201 -70t-300.5 -109.5q-111 -41 -188 -77.5t-126.5 -72t-75.5 -72t-36 -77t-7.5 -87.5t9.5 -104
q15 -117 53 -198.5t98 -131.5t141 -72.5t182 -22.5h502v-189h-502q-143 0 -256.5 33t-196.5 104t-135 182.5t-73 269.5q-21 160 5 269.5t96 187t182 132t263 102.5l462 150q-97 39 -194 74t-178.5 61.5t-139.5 43t-77 19.5q-17 0 -35.5 -3t-36.5 -18t-35 -46.5t-32 -88.5
l-183 48q77 296 324 296q7 0 16.5 -0.5t29 -5t50.5 -14t81 -26.5t121 -43.5t170 -65.5l368 -150zM933.895 -456.465l-132.491 130.406l130.571 132.282l135.372 -132.282zM588.265 -454.588l-131.531 130.405l130.571 132.282l135.372 -133.22zM933.895 -144.991
l-132.491 132.282l130.571 130.405l135.372 -131.344zM588.265 -143.115l-131.531 131.344l130.571 131.344l135.372 -132.281z" />
    <glyph glyph-name="uni0688" unicode="&#x688;" horiz-adv-x="1096" arabic-form="isolated" 
d="M543 -15q-51 0 -103 4.5t-101.5 14t-95 25t-82.5 37.5l-83 47l94 165l83 -47q35 -20 86 -32.5t108 -18t115 -4.5t107 8q58 9 95.5 25.5t47.5 37.5q10 22 -3 61t-45 87l-362 547l160 104q13 -20 27 -41.5t33 -50t44 -67t61 -92.5l84 -126l112 -168q25 -38 45 -79.5
t30 -83.5t8.5 -84.5t-20.5 -83.5q-63 -141 -290 -174q-35 -5 -74 -8t-81 -3zM196 1220v85h100l47 73v485h83v-363q38 46 84 77t103 31q33 0 64.5 -12t56.5 -37.5t40.5 -64.5t15.5 -92q0 -51 -17 -85.5t-43 -56t-58.5 -31t-63.5 -9.5h-412zM608 1305q42 0 69 23t27 74
q0 58 -23.5 89.5t-67.5 31.5q-32 0 -61 -20t-56 -51.5t-51.5 -69.5t-45.5 -74q-1 -1 -1 -3h210z" />
    <glyph glyph-name="uni0689.fina" unicode="&#x689;" horiz-adv-x="1180" 
d="M1265 189v-189h-37q-149 0 -275 124q-75 -101 -263 -128q-35 -5 -74 -8t-81 -3q-51 0 -103 4.5t-101.5 14t-95.5 25t-83 36.5l-82 48l94 165l83 -48q35 -20 85.5 -32.5t107.5 -18t115 -4t108 8.5q58 9 95.5 25.5t47.5 37.5q14 16 4.5 48t-33.5 69l-375 571l159 104
l388 -592q30 -43 60.5 -88.5t64.5 -83t71.5 -62t82.5 -24.5h37zM516 -354q-51 0 -92 15t-70.5 42.5t-45 67.5t-15.5 90q0 51 16 90.5t45 67.5t70 42.5t92 14.5q102 0 166 -59q63 -59 63 -154q0 -100 -63 -158q-64 -59 -166 -59zM516 -251q49 0 81 29t32 83t-32 83.5
t-81 29.5q-51 0 -82 -29.5t-31 -83.5q0 -112 113 -112z" />
    <glyph glyph-name="uni068A.fina" unicode="&#x68a;" horiz-adv-x="1176" 
d="M1265 189v-189h-37q-149 0 -275 124q-75 -101 -263 -128q-35 -5 -74 -8t-81 -3q-51 0 -103 4.5t-101.5 14t-95.5 25t-83 36.5l-82 48l94 165l83 -48q35 -20 85.5 -32.5t107.5 -18t115 -4t108 8.5q58 9 95.5 25.5t47.5 37.5q14 16 4.5 48t-33.5 69l-375 571l159 104
l388 -592q30 -43 60.5 -88.5t64.5 -83t71.5 -62t82.5 -24.5h37zM361 -289l170 172l174 -174l-172 -172z" />
    <glyph glyph-name="uni068B.fina" unicode="&#x68b;" horiz-adv-x="1184" 
d="M1265 189v-189h-37q-149 0 -275 124q-75 -101 -263 -128q-35 -5 -74 -8t-81 -3q-51 0 -103 4.5t-101.5 14t-95.5 25t-83 36.5l-82 48l94 165l83 -48q35 -20 85.5 -32.5t107.5 -18t115 -4t108 8.5q58 9 95.5 25.5t47.5 37.5q14 16 4.5 48t-33.5 69l-375 571l159 104
l388 -592q30 -43 60.5 -88.5t64.5 -83t71.5 -62t82.5 -24.5h37zM76 1300v85h100l47 73v485h83v-363q38 46 84 77t103 31q33 0 64.5 -12t56.5 -37.5t40.5 -64.5t15.5 -92q0 -51 -17 -85.5t-43 -56t-58.5 -31t-63.5 -9.5h-412zM488 1385q42 0 69 23t27 74q0 58 -23.5 89.5
t-67.5 31.5q-32 0 -61 -20t-56 -51.5t-51.5 -69.5t-45.5 -74q-1 -1 -1 -3h210zM361 -289l170 172l174 -174l-172 -172z" />
    <glyph glyph-name="uni068C.fina" unicode="&#x68c;" horiz-adv-x="1184" arabic-form="final" 
d="M1265 189v-189h-37q-149 0 -275 124q-75 -101 -263 -128q-35 -5 -74 -8t-81 -3q-51 0 -103 4.5t-101.5 14t-95.5 25t-83 36.5l-82 48l94 165l83 -48q35 -20 85.5 -32.5t107.5 -18t115 -4t108 8.5q58 9 95.5 25.5t47.5 37.5q14 16 4.5 48t-33.5 69l-375 571l159 104
l388 -592q30 -43 60.5 -88.5t64.5 -83t71.5 -62t82.5 -24.5h37zM623 1268l-158 160l156 162l162 -162zM240 1270l-158 160l156 162l162 -162z" />
    <glyph glyph-name="uni068D.fina" unicode="&#x68d;" horiz-adv-x="1179" arabic-form="final" 
d="M1265 189v-189h-37q-149 0 -275 124q-75 -101 -263 -128q-35 -5 -74 -8t-81 -3q-51 0 -103 4.5t-101.5 14t-95.5 25t-83 36.5l-82 48l94 165l83 -48q35 -20 85.5 -32.5t107.5 -18t115 -4t108 8.5q58 9 95.5 25.5t47.5 37.5q14 16 4.5 48t-33.5 69l-375 571l159 104
l388 -592q30 -43 60.5 -88.5t64.5 -83t71.5 -62t82.5 -24.5h37zM883 -315l-162 -162l-156 162l158 160zM500 -317l-162 -162l-156 162l158 160z" />
    <glyph glyph-name="uni068E.fina" unicode="&#x68e;" horiz-adv-x="1184" arabic-form="final" 
d="M1265 189v-189h-37q-149 0 -275 124q-75 -101 -263 -128q-35 -5 -74 -8t-81 -3q-51 0 -103 4.5t-101.5 14t-95.5 25t-83 36.5l-82 48l94 165l83 -48q35 -20 85.5 -32.5t107.5 -18t115 -4t108 8.5q58 9 95.5 25.5t47.5 37.5q14 16 4.5 48t-33.5 69l-375 571l159 104
l388 -592q30 -43 60.5 -88.5t64.5 -83t71.5 -62t82.5 -24.5h37zM576 1703l-142 -139l-140 139l144 143zM625 1251l-158 160l156 162l162 -162zM242 1253l-158 160l156 162l162 -162z" />
    <glyph glyph-name="uni068F.fina" unicode="&#x68f;" horiz-adv-x="1184" 
d="M1265 189v-189h-37q-149 0 -275 124q-75 -101 -263 -128q-35 -5 -74 -8t-81 -3q-51 0 -103 4.5t-101.5 14t-95.5 25t-83 36.5l-82 48l94 165l83 -48q35 -20 85.5 -32.5t107.5 -18t115 -4t108 8.5q58 9 95.5 25.5t47.5 37.5q14 16 4.5 48t-33.5 69l-375 571l159 104
l388 -592q30 -43 60.5 -88.5t64.5 -83t71.5 -62t82.5 -24.5h37zM559 1631l152 154l152 -152l-152 -154zM116 1627l151 153l156 -151l-154 -154zM345 1337l142 139l140 -139l-144 -143z" />
    <glyph glyph-name="uni0690.fina" unicode="&#x690;" horiz-adv-x="1184" 
d="M1265 189v-189h-37q-149 0 -275 124q-75 -101 -263 -128q-35 -5 -74 -8t-81 -3q-51 0 -103 4.5t-101.5 14t-95.5 25t-83 36.5l-82 48l94 165l83 -48q35 -20 85.5 -32.5t107.5 -18t115 -4t108 8.5q58 9 95.5 25.5t47.5 37.5q14 16 4.5 48t-33.5 69l-375 571l159 104
l388 -592q30 -43 60.5 -88.5t64.5 -83t71.5 -62t82.5 -24.5h37zM671 1193l-138 139l136 141l141 -141zM311 1195l-137 139l136 141l141 -142zM671 1525l-138 141l136 139l141 -140zM311 1527l-137 140l136 140l141 -141z" />
    <glyph glyph-name="uni0691" unicode="&#x691;" horiz-adv-x="785" arabic-form="isolated" 
d="M-90 -555v189h138q103 0 178.5 24.5t125 75.5t73 130t23.5 188v624h189v-624q0 -143 -37.5 -255.5t-111.5 -190.5t-184.5 -119.5t-255.5 -41.5h-138zM125 893v85h100l47 73v485h83v-363q38 46 84 77t103 31q33 0 64.5 -12t56.5 -37.5t40.5 -64.5t15.5 -92
q0 -51 -17 -85.5t-43 -56t-58.5 -31t-63.5 -9.5h-412zM537 978q42 0 69 23t27 74q0 58 -23.5 89.5t-67.5 31.5q-32 0 -61 -20t-56 -51.5t-51.5 -69.5t-45.5 -74q-1 -1 -1 -3h210z" />
    <glyph glyph-name="uni0692.fina" unicode="&#x692;" horiz-adv-x="848" 
d="M857 0h-43q-96 0 -177 38q0 -140 -39 -250t-114 -186.5t-184.5 -116.5t-251.5 -40h-138v189h138q103 0 178.5 24.5t125 75.5t73 130t23.5 188v624h189v-331q0 -56 23.5 -87.5t54.5 -46.5t59.5 -18.5t39.5 -3.5h43v-189zM815 1281l-225 -408h-127l-228 408h160l129 -264
l133 264h158z" />
    <glyph glyph-name="uni0693.fina" unicode="&#x693;" horiz-adv-x="843" 
d="M857 0h-43q-96 0 -177 38q0 -140 -39 -250t-114 -186.5t-184.5 -116.5t-251.5 -40h-138v189h138q103 0 178.5 24.5t125 75.5t73 130t23.5 188v624h189v-331q0 -56 23.5 -87.5t54.5 -46.5t59.5 -18.5t39.5 -3.5h43v-189zM442 -783q-51 0 -92 15t-70.5 42.5t-45 67.5
t-15.5 90q0 51 16 90.5t45 67.5t70 42.5t92 14.5q102 0 166 -59q63 -59 63 -154q0 -100 -63 -158q-64 -59 -166 -59zM442 -680q49 0 81 29t32 83t-32 83.5t-81 29.5q-51 0 -82 -29.5t-31 -83.5q0 -112 113 -112z" />
    <glyph glyph-name="uni0694.fina" unicode="&#x694;" horiz-adv-x="848" 
d="M857 0h-43q-96 0 -177 38q0 -140 -39 -250t-114 -186.5t-184.5 -116.5t-251.5 -40h-138v189h138q103 0 178.5 24.5t125 75.5t73 130t23.5 188v624h189v-331q0 -56 23.5 -87.5t54.5 -46.5t59.5 -18.5t39.5 -3.5h43v-189zM89 -860l170 172l174 -174l-172 -172z" />
    <glyph glyph-name="uni0695.fina" unicode="&#x695;" horiz-adv-x="848" 
d="M857 0h-43q-96 0 -177 38q0 -140 -39 -250t-114 -186.5t-184.5 -116.5t-251.5 -40h-138v189h138q103 0 178.5 24.5t125 75.5t73 130t23.5 188v624h189v-331q0 -56 23.5 -87.5t54.5 -46.5t59.5 -18.5t39.5 -3.5h43v-189zM563 -679l-225 -408h-127l-228 408h160l129 -264
l133 264h158z" />
    <glyph glyph-name="uni0696.fina" unicode="&#x696;" horiz-adv-x="848" 
d="M857 0h-43q-96 0 -177 38q0 -140 -39 -250t-114 -186.5t-184.5 -116.5t-251.5 -40h-138v189h138q103 0 178.5 24.5t125 75.5t73 130t23.5 188v624h189v-331q0 -56 23.5 -87.5t54.5 -46.5t59.5 -18.5t39.5 -3.5h43v-189zM17 163l170 172l174 -174l-172 -172zM19 -874
l170 172l174 -174l-172 -172z" />
    <glyph glyph-name="uni0697.fina" unicode="&#x697;" horiz-adv-x="848" 
d="M857 0h-43q-96 0 -177 38q0 -140 -39 -250t-114 -186.5t-184.5 -116.5t-251.5 -40h-138v189h138q103 0 178.5 24.5t125 75.5t73 130t23.5 188v624h189v-331q0 -56 23.5 -87.5t54.5 -46.5t59.5 -18.5t39.5 -3.5h43v-189zM724 881l-158 160l156 162l162 -162zM341 883
l-158 160l156 162l162 -162z" />
    <glyph glyph-name="uni0698" unicode="&#x698;" horiz-adv-x="859" arabic-form="isolated" 
d="M-90 -555v189h138q103 0 178.5 24.5t125 75.5t73 130t23.5 188v624h189v-624q0 -143 -37.5 -255.5t-111.5 -190.5t-184.5 -119.5t-255.5 -41.5h-138zM675 1361l-142 -139l-140 139l144 143zM724 909l-158 160l156 162l162 -162zM341 911l-158 160l156 162l162 -162z" />
    <glyph glyph-name="uni0699.fina" unicode="&#x699;" horiz-adv-x="848" 
d="M857 0h-43q-96 0 -177 38q0 -140 -39 -250t-114 -186.5t-184.5 -116.5t-251.5 -40h-138v189h138q103 0 178.5 24.5t125 75.5t73 130t23.5 188v624h189v-331q0 -56 23.5 -87.5t54.5 -46.5t59.5 -18.5t39.5 -3.5h43v-189zM695 864l-138 139l136 141l141 -141zM335 866
l-137 139l136 141l141 -142zM695 1196l-138 141l136 139l141 -140zM335 1198l-137 140l136 140l141 -141z" />
    <glyph glyph-name="uni069A.init" unicode="&#x69a;" horiz-adv-x="1764" 
d="M760 2q-94 0 -167 27.5t-123 79.5q-52 -56 -121 -82.5t-139 -26.5h-220v189h220q15 0 43 4.5t55 23t47.5 55.5t20.5 101v4v299h189v-299q0 -97 45.5 -142t149.5 -45q15 0 42.5 5.5t55 24.5t48 56t20.5 101v299h188v-299q0 -97 47 -143t151 -46q16 0 43 6.5t53.5 26.5
t45.5 57t19 99q0 22 -3.5 55t-9 71t-12.5 77.5t-14 74t-13 62t-10 40.5l179 57q2 -6 8 -31.5t14 -63t16.5 -83.5t16 -92.5t12.5 -90t5 -76.5q0 -95 -31 -165.5t-80.5 -117t-112.5 -70t-126 -24.5q-96 0 -169.5 28.5t-124.5 82.5q-52 -55 -120.5 -82t-137.5 -27zM837 1033
l170 172l174 -174l-172 -172zM833 -335l170 172l174 -174l-172 -172z" />
    <glyph glyph-name="uni069A.medi" unicode="&#x69a;" horiz-adv-x="1781" 
d="M1730 0q-96 0 -170 27.5t-124 82.5h-1l-15 -16q-49 -47 -111 -70.5t-133 -23.5q-187 0 -290 108q-50 -53 -115 -79.5t-132 -28.5h-13q-177 3 -276 104q-6 -8 -14 -14q-101 -90 -285 -90h-68v189h68q64 0 103.5 12t61.5 35.5t29.5 57t7.5 76.5v305h189v-300q0 -97 47 -141
t147 -45q18 1 44.5 7t51 25t42.5 54.5t18 94.5v305h188v-300q0 -97 46.5 -141.5t149.5 -44.5q29 0 58 9t52 30t38 54.5t17 82.5v310h189v-310q2 -92 51 -134t149 -42h61v-189h-61v0zM716 1044l170 172l174 -174l-172 -172zM711 -335l170 172l174 -174l-172 -172z" />
    <glyph glyph-name="uni069A.fina" unicode="&#x69a;" horiz-adv-x="2923" 
d="M2862 0q-99 0 -174.5 29t-125.5 84l-24 -23q-50 -42 -115 -66t-133 -24q-98 0 -172 29t-124 84l-24 -23q-50 -42 -115 -66t-133 -24q-125 0 -216 56v-84q0 -262 -140 -393t-419 -131h-235q-155 0 -281 67t-204 191q-54 85 -77.5 189t-16.5 223t44 250t103 270l170 -83
q-56 -116 -88.5 -223t-40.5 -202.5t8 -177t57 -145.5q52 -81 136 -125.5t190 -44.5h235q115 0 187.5 24t113 68t55 105.5t14.5 137.5v703h189v-194q0 -96 18.5 -153.5t49 -88.5t69 -41t79.5 -10q25 0 57 9t60 30.5t47.5 57.5t19.5 90v300h188v-310q2 -91 48.5 -134
t149.5 -43q25 0 56.5 9t59.5 30.5t47 57.5t19 90v300h188v-310q2 -91 49.5 -133.5t150.5 -42.5h69v-189h-69v0zM1809 1117l170 172l174 -174l-172 -172zM1811 -344l170 172l174 -174l-172 -172z" />
    <glyph glyph-name="uni069B.init" unicode="&#x69b;" horiz-adv-x="1768" 
d="M760 2q-94 0 -167 27.5t-123 79.5q-52 -56 -121 -82.5t-139 -26.5h-220v189h220q15 0 43 4.5t55 23t47.5 55.5t20.5 101v4v299h189v-299q0 -97 45.5 -142t149.5 -45q15 0 42.5 5.5t55 24.5t48 56t20.5 101v299h188v-299q0 -97 47 -143t151 -46q16 0 43 6.5t53.5 26.5
t45.5 57t19 99q0 22 -3.5 55t-9 71t-12.5 77.5t-14 74t-13 62t-10 40.5l179 57q2 -6 8 -31.5t14 -63t16.5 -83.5t16 -92.5t12.5 -90t5 -76.5q0 -95 -31 -165.5t-80.5 -117t-112.5 -70t-126 -24.5q-96 0 -169.5 28.5t-124.5 82.5q-52 -55 -120.5 -82t-137.5 -27zM1025 -780
l-144 143l140 139l142 -139zM1372 -345l-162 -162l-156 162l158 160zM989 -347l-162 -162l-156 162l158 160z" />
    <glyph glyph-name="uni069B.medi" unicode="&#x69b;" horiz-adv-x="1781" 
d="M1730 0q-96 0 -170 27.5t-124 82.5h-1l-15 -16q-49 -47 -111 -70.5t-133 -23.5q-187 0 -290 108q-50 -53 -115 -79.5t-132 -28.5h-13q-177 3 -276 104q-6 -8 -14 -14q-101 -90 -285 -90h-68v189h68q64 0 103.5 12t61.5 35.5t29.5 57t7.5 76.5v305h189v-300q0 -97 47 -141
t147 -45q18 1 44.5 7t51 25t42.5 54.5t18 94.5v305h188v-300q0 -97 46.5 -141.5t149.5 -44.5q29 0 58 9t52 30t38 54.5t17 82.5v310h189v-310q2 -92 51 -134t149 -42h61v-189h-61v0zM887 -780l-144 143l140 139l142 -139zM1234 -345l-162 -162l-156 162l158 160zM851 -347
l-162 -162l-156 162l158 160z" />
    <glyph glyph-name="uni069B.fina" unicode="&#x69b;" horiz-adv-x="2917" 
d="M2862 0q-99 0 -174.5 29t-125.5 84l-24 -23q-50 -42 -115 -66t-133 -24q-98 0 -172 29t-124 84l-24 -23q-50 -42 -115 -66t-133 -24q-125 0 -216 56v-84q0 -262 -140 -393t-419 -131h-235q-155 0 -281 67t-204 191q-54 85 -77.5 189t-16.5 223t44 250t103 270l170 -83
q-56 -116 -88.5 -223t-40.5 -202.5t8 -177t57 -145.5q52 -81 136 -125.5t190 -44.5h235q115 0 187.5 24t113 68t55 105.5t14.5 137.5v703h189v-194q0 -96 18.5 -153.5t49 -88.5t69 -41t79.5 -10q25 0 57 9t60 30.5t47.5 57.5t19.5 90v300h188v-310q2 -91 48.5 -134
t149.5 -43q25 0 56.5 9t59.5 30.5t47 57.5t19 90v300h188v-310q2 -91 49.5 -133.5t150.5 -42.5h69v-189h-69v0zM1989 -783l-144 143l140 139l142 -139zM2336 -348l-162 -162l-156 162l158 160zM1953 -350l-162 -162l-156 162l158 160z" />
    <glyph glyph-name="uni069C.init" unicode="&#x69c;" horiz-adv-x="1764" 
d="M760 2q-94 0 -167 27.5t-123 79.5q-52 -56 -121 -82.5t-139 -26.5h-220v189h220q15 0 43 4.5t55 23t47.5 55.5t20.5 101v4v299h189v-299q0 -97 45.5 -142t149.5 -45q15 0 42.5 5.5t55 24.5t48 56t20.5 101v299h188v-299q0 -97 47 -143t151 -46q16 0 43 6.5t53.5 26.5
t45.5 57t19 99q0 22 -3.5 55t-9 71t-12.5 77.5t-14 74t-13 62t-10 40.5l179 57q2 -6 8 -31.5t14 -63t16.5 -83.5t16 -92.5t12.5 -90t5 -76.5q0 -95 -31 -165.5t-80.5 -117t-112.5 -70t-126 -24.5q-96 0 -169.5 28.5t-124.5 82.5q-52 -55 -120.5 -82t-137.5 -27zM1003 -780
l-144 143l140 139l142 -139zM1350 -345l-162 -162l-156 162l158 160zM967 -347l-162 -162l-156 162l158 160zM1153 1361l-142 -139l-140 139l144 143zM1202 909l-158 160l156 162l162 -162zM819 911l-158 160l156 162l162 -162z" />
    <glyph glyph-name="uni069C.medi" unicode="&#x69c;" horiz-adv-x="1781" 
d="M1730 0q-96 0 -170 27.5t-124 82.5h-1l-15 -16q-49 -47 -111 -70.5t-133 -23.5q-187 0 -290 108q-50 -53 -115 -79.5t-132 -28.5h-13q-177 3 -276 104q-6 -8 -14 -14q-101 -90 -285 -90h-68v189h68q64 0 103.5 12t61.5 35.5t29.5 57t7.5 76.5v305h189v-300q0 -97 47 -141
t147 -45q18 1 44.5 7t51 25t42.5 54.5t18 94.5v305h188v-300q0 -97 46.5 -141.5t149.5 -44.5q29 0 58 9t52 30t38 54.5t17 82.5v310h189v-310q2 -92 51 -134t149 -42h61v-189h-61v0zM887 -770l-144 143l140 139l142 -139zM1234 -335l-162 -162l-156 162l158 160zM851 -337
l-162 -162l-156 162l158 160zM1026 1367l-142 -139l-140 139l144 143zM1075 915l-158 160l156 162l162 -162zM692 917l-158 160l156 162l162 -162z" />
    <glyph glyph-name="uni069C.fina" unicode="&#x69c;" horiz-adv-x="2923" 
d="M2862 0q-99 0 -174.5 29t-125.5 84l-24 -23q-50 -42 -115 -66t-133 -24q-98 0 -172 29t-124 84l-24 -23q-50 -42 -115 -66t-133 -24q-125 0 -216 56v-84q0 -262 -140 -393t-419 -131h-235q-155 0 -281 67t-204 191q-54 85 -77.5 189t-16.5 223t44 250t103 270l170 -83
q-56 -116 -88.5 -223t-40.5 -202.5t8 -177t57 -145.5q52 -81 136 -125.5t190 -44.5h235q115 0 187.5 24t113 68t55 105.5t14.5 137.5v703h189v-194q0 -96 18.5 -153.5t49 -88.5t69 -41t79.5 -10q25 0 57 9t60 30.5t47.5 57.5t19.5 90v300h188v-310q2 -91 48.5 -134
t149.5 -43q25 0 56.5 9t59.5 30.5t47 57.5t19 90v300h188v-310q2 -91 49.5 -133.5t150.5 -42.5h69v-189h-69v0zM2127 1333l-142 -139l-140 139l144 143zM2176 881l-158 160l156 162l162 -162zM1793 883l-158 160l156 162l162 -162zM1990 -780l-144 143l140 139l142 -139z
M2337 -345l-162 -162l-156 162l158 160zM1954 -347l-162 -162l-156 162l158 160z" />
    <glyph glyph-name="uni069D.init" unicode="&#x69d;" horiz-adv-x="1801" 
d="M-11 0v189h163q70 0 112 14t64 35.5t29 47.5t7 51v338h188v-330q0 -56 23.5 -87t53.5 -46q12 19 23.5 38.5t23.5 39.5q39 64 81.5 130.5t89.5 130t98.5 119.5t109.5 97.5t123 66t138 24.5t143.5 -26.5t125.5 -82t88.5 -141.5t33.5 -205q0 -111 -36.5 -188t-94.5 -125
t-130 -69t-142 -21h-572q-72 0 -136 21.5t-113 61.5q-12 9 -23 20q-52 -51 -126.5 -76t-174.5 -27h-170zM1304 189q49 0 89 13.5t68.5 40.5t44 67t15.5 93q0 128 -55 197.5t-150 69.5q-70 0 -135.5 -45t-126 -115t-115.5 -155t-104 -166h469zM1493 -324l-162 -162l-156 162
l158 160zM1110 -326l-162 -162l-156 162l158 160z" />
    <glyph glyph-name="uni069D.medi" unicode="&#x69d;" horiz-adv-x="1851" 
d="M-12 0v189h163q70 0 112 14t64 35.5t29 47.5t7 51v339h188v-331q0 -56 23.5 -87t53.5 -46q12 19 23.5 38.5t23.5 39.5q39 64 81.5 130.5t89.5 130t98.5 119.5t109.5 97.5t123 66t138 24.5t143.5 -26.5t125.5 -82t88.5 -141.5t33.5 -205q0 -66 -13.5 -119t-36.5 -95h206
v-189h-1131q-72 0 -136 21.5t-113 61.5q-12 9 -23 20q-52 -51 -126.5 -76t-174.5 -27h-170zM1314 189q23 1 58.5 8t68.5 28q38 26 58.5 69.5t20.5 108.5q0 128 -55 197.5t-150 69.5q-47 0 -91 -20.5t-86.5 -55.5t-82.5 -82t-77.5 -100t-73 -109.5t-68.5 -109.5l-2 -4h480z
M1560 -325l-162 -162l-156 162l158 160zM1177 -327l-162 -162l-156 162l158 160z" />
    <glyph glyph-name="uni069D.fina" unicode="&#x69d;" horiz-adv-x="2811" 
d="M720 -550q-156 0 -282.5 67.5t-204.5 192.5q-54 85 -77.5 188.5t-16.5 221.5t43.5 247.5t102.5 267.5l171 -81q-112 -232 -128 -423.5t66 -321.5q50 -81 135 -125.5t191 -44.5h235q115 0 186.5 24.5t112 68.5t55 106.5t14.5 138.5v357v342h188v-334q0 -54 23 -85t53 -46
q12 19 23.5 39t25.5 40q38 63 80.5 130t89 130t98 119.5t109.5 98.5t122.5 66.5t137.5 24.5t143.5 -27t126 -83.5t89.5 -142.5t34 -204q0 -66 -13.5 -118.5t-36.5 -94.5h208v-189h-1133q-48 0 -94 10t-86 29v-62q0 -527 -556 -527h-235zM2274 189q96 5 149.5 58t53.5 155
q0 127 -53.5 197.5t-150.5 70.5q-46 0 -90.5 -21t-86.5 -56.5t-82 -83t-78 -101t-73 -110t-68 -109.5h479zM2528 -333l-162 -162l-156 162l158 160zM2145 -335l-162 -162l-156 162l158 160z" />
    <glyph glyph-name="uni069E.init" unicode="&#x69e;" horiz-adv-x="1792" 
d="M-16 0v189h163q70 0 112 14t64 35.5t29 47.5t7 51v338h188v-330q0 -56 23.5 -87t53.5 -46q12 19 23.5 38.5t23.5 39.5q39 64 81.5 130.5t89.5 130t98.5 119.5t109.5 97.5t123 66t138 24.5t143.5 -26.5t125.5 -82t88.5 -141.5t33.5 -205q0 -111 -36.5 -188t-94.5 -125
t-130 -69t-142 -21h-572q-72 0 -136 21.5t-113 61.5q-12 9 -23 20q-52 -51 -126.5 -76t-174.5 -27h-170zM1299 189q49 0 89 13.5t68.5 40.5t44 67t15.5 93q0 128 -55 197.5t-150 69.5q-70 0 -135.5 -45t-126 -115t-115.5 -155t-104 -166h469zM1418 1512l-142 -139l-140 139
l144 143zM1467 1060l-158 160l156 162l162 -162zM1084 1062l-158 160l156 162l162 -162z" />
    <glyph glyph-name="uni069E.medi" unicode="&#x69e;" horiz-adv-x="1851" 
d="M-11 0v189h163q70 0 112 14t64 35.5t29 47.5t7 51v339h188v-331q0 -56 23.5 -87t53.5 -46q12 19 23.5 38.5t23.5 39.5q39 64 81.5 130.5t89.5 130t98.5 119.5t109.5 97.5t123 66t138 24.5t143.5 -26.5t125.5 -82t88.5 -141.5t33.5 -205q0 -66 -13.5 -119t-36.5 -95h206
v-189h-1131q-72 0 -136 21.5t-113 61.5q-12 9 -23 20q-52 -51 -126.5 -76t-174.5 -27h-170zM1315 189q23 1 58.5 8t68.5 28q38 26 58.5 69.5t20.5 108.5q0 128 -55 197.5t-150 69.5q-47 0 -91 -20.5t-86.5 -55.5t-82.5 -82t-77.5 -100t-73 -109.5t-68.5 -109.5l-2 -4h480z
M1425 1512l-142 -139l-140 139l144 143zM1474 1060l-158 160l156 162l162 -162zM1091 1062l-158 160l156 162l162 -162z" />
    <glyph glyph-name="uni069E.fina" unicode="&#x69e;" horiz-adv-x="2811" 
d="M720 -550q-156 0 -282.5 67.5t-204.5 192.5q-54 85 -77.5 188.5t-16.5 221.5t43.5 247.5t102.5 267.5l171 -81q-112 -232 -128 -423.5t66 -321.5q50 -81 135 -125.5t191 -44.5h235q115 0 186.5 24.5t112 68.5t55 106.5t14.5 138.5v357v342h188v-334q0 -54 23 -85t53 -46
q12 19 23.5 39t25.5 40q38 63 80.5 130t89 130t98 119.5t109.5 98.5t122.5 66.5t137.5 24.5t143.5 -27t126 -83.5t89.5 -142.5t34 -204q0 -66 -13.5 -118.5t-36.5 -94.5h208v-189h-1133q-48 0 -94 10t-86 29v-62q0 -527 -556 -527h-235zM2274 189q96 5 149.5 58t53.5 155
q0 127 -53.5 197.5t-150.5 70.5q-46 0 -90.5 -21t-86.5 -56.5t-82 -83t-78 -101t-73 -110t-68 -109.5h479zM2398 1512l-142 -139l-140 139l144 143zM2447 1060l-158 160l156 162l162 -162zM2064 1062l-158 160l156 162l162 -162z" />
    <glyph glyph-name="uni069F.init" unicode="&#x69f;" horiz-adv-x="1392" 
d="M-37 0v189h224q25 38 49 80t50 81v1077h188v-807q43 51 89.5 95.5t98 76.5t108 50.5t118.5 18.5q73 0 144 -27t126.5 -83t89.5 -142t34 -204q0 -75 -17 -134t-46.5 -104t-69 -76.5t-84.5 -52t-93.5 -29.5t-94.5 -9h-914zM877 189q9 0 24.5 1t34.5 5t39.5 11t39.5 19
q40 26 59 70t19 110q0 127 -54 197.5t-151 70.5q-46 0 -90 -20.5t-86.5 -56t-82.5 -83t-77.5 -101t-72.5 -110t-67 -109.5q-2 -2 -2 -4h467zM1109 1601l-142 -139l-140 139l144 143zM1158 1149l-158 160l156 162l162 -162zM775 1151l-158 160l156 162l162 -162z" />
    <glyph glyph-name="uni069F.medi" unicode="&#x69f;" horiz-adv-x="1472" 
d="M1489 0h-1501v189h224q25 38 49 80t50 81v1077h188v-807q43 51 89.5 95.5t98 76.5t108 50.5t118.5 18.5q73 0 144 -27t126.5 -83t89.5 -142t34 -204q0 -67 -13.5 -120t-37.5 -96h233v-189zM902 189q46 0 85.5 13t68.5 39.5t45.5 67t16.5 96.5q0 127 -54 197.5t-151 70.5
q-46 0 -90 -20.5t-86.5 -56t-82.5 -83t-77.5 -101t-72.5 -110t-67 -109.5q-2 -2 -2 -4h467zM1109 1601l-142 -139l-140 139l144 143zM1158 1149l-158 160l156 162l162 -162zM775 1151l-158 160l156 162l162 -162z" />
    <glyph glyph-name="uni069F.fina" unicode="&#x69f;" horiz-adv-x="1595" 
d="M1604 0h-1491v189h224q25 38 49 80t50 81v1077h188v-807q43 51 89.5 95t98 76t108 50.5t118.5 18.5q73 0 144 -27t126.5 -82.5t89.5 -141.5t34 -204q0 -67 -13.5 -120t-37.5 -96h223v-189zM1027 189q46 0 85.5 13t68.5 39.5t45.5 67t16.5 96.5q0 127 -54 197t-151 70
q-46 0 -90 -20.5t-86.5 -56t-82.5 -82.5t-77.5 -100.5t-72.5 -110t-67 -109.5q-2 -2 -2 -4h467zM1234 1601l-142 -139l-140 139l144 143zM1283 1149l-158 160l156 162l162 -162zM900 1151l-158 160l156 162l162 -162z" />
    <glyph glyph-name="uni06A0.init" unicode="&#x6a0;" horiz-adv-x="1094" 
d="M-11 0v189h332q-37 38 -59.5 77t-34.5 75t-16 67.5t-4 55.5q0 82 33 154.5t88.5 125.5t129 84t154.5 31q47 0 90 -10.5t87 -30t92.5 -48t107.5 -63.5l-94 -162q-35 21 -71.5 43.5t-73 40.5t-72 29.5t-66.5 11.5q-39 0 -77.5 -14t-70 -40.5t-51 -65t-19.5 -86.5
q0 -54 21.5 -95.5t58.5 -72t86.5 -51t106 -33t116 -18t117.5 -5.5h126v-189h-1037zM765 1564l-142 -139l-140 139l144 143zM814 1112l-158 160l156 162l162 -162zM431 1114l-158 160l156 162l162 -162z" />
    <glyph glyph-name="uni06A0.medi" unicode="&#x6a0;" horiz-adv-x="1259" 
d="M905 0q-17 0 -39 4.5t-52 17.5t-69 37t-91 63q-116 -63 -271 -92.5t-346 -29.5h-58v189h58q144 0 258 16.5t193 47.5q-52 44 -103.5 91t-94.5 88.5t-74.5 72t-42.5 42.5v40q0 19 2 41.5t8 46.5t18 48.5t32 47.5q76 85 242 85h331q83 0 150 -40.5t98 -111.5
q23 -46 22.5 -90.5t-17 -87t-45 -82t-62.5 -76t-69.5 -69.5t-65.5 -62q22 -15 38 -24.5t26.5 -14.5t16 -6.5t7.5 -2.5h366v-189h-366zM364 623q20 -19 56 -52.5t78.5 -72.5t86 -78t78.5 -68q54 43 103.5 91t99.5 111q11 14 18.5 32.5t-2.5 39.5q-8 15 -26 28t-50 13h-331
q-29 0 -47.5 -2.5t-30 -6.5t-17 -7.5t-7.5 -6.5q-3 -2 -5 -7.5t-4 -13.5zM795 1569l-142 -139l-140 139l144 143zM844 1117l-158 160l156 162l162 -162zM461 1119l-158 160l156 162l162 -162z" />
    <glyph glyph-name="uni06A0.fina" unicode="&#x6a0;" horiz-adv-x="1371" 
d="M1182 -761h-464q-43 0 -94.5 4t-106.5 15t-110.5 31t-107.5 53q-111 68 -167 175.5t-56 248.5q0 95 45 181.5t137 170.5q62 55 135.5 104t151.5 96q-50 49 -94.5 95t-79 82.5t-55 59t-22.5 25.5l-25 62q0 19 2 42t8 47t18 48t32 47q40 44 99.5 64.5t144.5 20.5h329
q83 0 148.5 -40t97.5 -109q31 -68 19.5 -139.5t-63.5 -134.5q-48 -57 -111.5 -106t-134.5 -94q37 -31 63 -50t43 -29.5t26.5 -14.5t12.5 -5h374v-189h-376q-20 0 -46 6.5t-62.5 26t-86.5 56t-118 95.5q-80 -47 -156 -95.5t-135 -100t-95.5 -107t-36.5 -115.5
q0 -74 22 -127.5t58 -91t83.5 -61t97.5 -36.5t100 -17.5t92 -4.5h464v-189zM460 677q15 -17 38.5 -42.5t52.5 -55.5t62 -64t68 -68l32 -28q75 45 139.5 92.5t106.5 98.5q33 36 19 73q-9 20 -29.5 30t-46.5 10h-329q-29 0 -48.5 -2.5t-31 -6.5t-17 -7.5t-7.5 -4.5
q-7 -11 -9 -25zM892 1578l-142 -139l-140 139l144 143zM941 1126l-158 160l156 162l162 -162zM558 1128l-158 160l156 162l162 -162z" />
    <glyph glyph-name="uni06A1.fina" unicode="&#x6a1;" horiz-adv-x="2128" 
d="M1024 162q27 0 75 1.5t101 4.5t102.5 8t80.5 13q-33 30 -56.5 66t-38.5 75.5t-22 82t-7 84.5q0 73 30.5 140t84 117.5t125 80.5t153.5 30q86 0 154 -31.5t115 -83.5t72 -118t25 -135q0 -87 -27.5 -160t-82.5 -142q16 -1 37.5 -2t45 -2t46 -1.5t40.5 -0.5h73v-189h-73
q-130 0 -238.5 11.5t-196.5 36.5q-49 -18 -124.5 -32t-161 -23t-173 -14t-159.5 -5q-129 0 -247 3t-221.5 20.5t-191 56t-154.5 109.5q-43 45 -62.5 107t-19.5 137q0 51 7.5 102.5t16.5 94t16.5 70t8.5 29.5l180 -55l-6.5 -23t-14.5 -58t-14 -77.5t-6 -82.5q0 -60 30.5 -102
t82.5 -69t121 -42t147.5 -22t162 -8.5t164.5 -1.5zM1440 496q0 -50 14.5 -88.5t41 -68.5t64.5 -53t85 -40q45 17 81 39.5t61.5 52.5t39.5 69t14 90q0 34 -15.5 66.5t-42 57.5t-60.5 40t-71 15q-42 0 -80.5 -14t-68 -38t-46.5 -57t-17 -71z" />
    <glyph glyph-name="uni06A2.init" unicode="&#x6a2;" horiz-adv-x="1014" 
d="M-12 0v189h384q112 0 180.5 16t106.5 40t51.5 52.5t16.5 54.5h-152q-26 0 -58 2t-66.5 7.5t-69.5 16.5t-68 29q-27 16 -55 40t-50.5 59.5t-37 84t-14.5 113.5q0 81 28 153.5t80 124.5t119 79t143 27q87 0 160 -37t123 -106q54 -72 80 -178t26 -243v-138q0 -99 -39.5 -176
t-119.5 -125q-133 -85 -384 -85h-384zM526 899q-33 0 -67.5 -11.5t-62 -35t-45 -60.5t-17.5 -88q0 -33 7 -55.5t18 -37t23 -23.5t23 -15q29 -17 71 -24.5t99 -7.5h154q-2 99 -20.5 173t-50.5 121q-48 64 -132 64zM371 -335l170 172l174 -174l-172 -172z" />
    <glyph glyph-name="uni06A2.medi" unicode="&#x6a2;" horiz-adv-x="1099" 
d="M565 246q45 16 81 40t61.5 56t39.5 73t14 93q0 30 -15.5 60t-42 54t-60.5 39t-71 15q-42 0 -80.5 -13.5t-68 -36t-46.5 -53.5t-17 -65q-2 -50 12.5 -91t41.5 -73t65.5 -56.5t85.5 -41.5zM572 865q86 0 154 -30t115 -79.5t72 -114t25 -133.5q0 -97 -27.5 -175t-83.5 -138
q76 -6 164 -6h116v-189h-116q-256 0 -428 48q-88 -24 -202 -36t-260 -12h-119v189h119q109 0 195 6q-59 61 -88 139.5t-29 173.5q0 73 30.5 138t84 114t125 77t153.5 28zM371 -330l170 172l174 -174l-172 -172z" />
    <glyph glyph-name="uni06A2.fina" unicode="&#x6a2;" horiz-adv-x="2128" 
d="M1024 162q27 0 75 1.5t101 4.5t102.5 8t80.5 13q-33 30 -56.5 66t-38.5 75.5t-22 82t-7 84.5q0 73 30.5 140t84 117.5t125 80.5t153.5 30q86 0 154 -31.5t115 -83.5t72 -118t25 -135q0 -87 -27.5 -160t-82.5 -142q16 -1 37.5 -2t45 -2t46 -1.5t40.5 -0.5h73v-189h-73
q-130 0 -238.5 11.5t-196.5 36.5q-49 -18 -124.5 -32t-161 -23t-173 -14t-159.5 -5q-129 0 -247 3t-221.5 20.5t-191 56t-154.5 109.5q-43 45 -62.5 107t-19.5 137q0 51 7.5 102.5t16.5 94t16.5 70t8.5 29.5l180 -55l-6.5 -23t-14.5 -58t-14 -77.5t-6 -82.5q0 -60 30.5 -102
t82.5 -69t121 -42t147.5 -22t162 -8.5t164.5 -1.5zM1440 496q0 -50 14.5 -88.5t41 -68.5t64.5 -53t85 -40q45 17 81 39.5t61.5 52.5t39.5 69t14 90q0 34 -15.5 66.5t-42 57.5t-60.5 40t-71 15q-42 0 -80.5 -14t-68 -38t-46.5 -57t-17 -71zM1456 -340l170 172l174 -174
l-172 -172z" />
    <glyph glyph-name="uni06A3.init" unicode="&#x6a3;" horiz-adv-x="1004" 
d="M-12 0v189h384q112 0 180.5 16t106.5 40t51.5 52.5t16.5 54.5h-152q-26 0 -58 2t-66.5 7.5t-69.5 16.5t-68 29q-27 16 -55 40t-50.5 59.5t-37 84t-14.5 113.5q0 81 28 153.5t80 124.5t119 79t143 27q87 0 160 -37t123 -106q54 -72 80 -178t26 -243v-138q0 -99 -39.5 -176
t-119.5 -125q-133 -85 -384 -85h-384zM526 899q-33 0 -67.5 -11.5t-62 -35t-45 -60.5t-17.5 -88q0 -33 7 -55.5t18 -37t23 -23.5t23 -15q29 -17 71 -24.5t99 -7.5h154q-2 99 -20.5 173t-50.5 121q-48 64 -132 64zM323 1422l170 172l174 -174l-172 -172zM329 -340l170 172
l174 -174l-172 -172z" />
    <glyph glyph-name="uni06A3.medi" unicode="&#x6a3;" horiz-adv-x="1103" 
d="M575 246q45 16 81 40t61.5 56t39.5 73t14 93q0 30 -15.5 60t-42 54t-60.5 39t-71 15q-42 0 -80.5 -13.5t-68 -36t-46.5 -53.5t-17 -65q-2 -50 12.5 -91t41.5 -73t65.5 -56.5t85.5 -41.5zM582 865q86 0 154 -30t115 -79.5t72 -114t25 -133.5q0 -97 -27.5 -175t-83.5 -138
q76 -6 164 -6h116v-189h-116q-256 0 -428 48q-88 -24 -202 -36t-260 -12h-119v189h119q109 0 195 6q-59 61 -88 139.5t-29 173.5q0 73 30.5 138t84 114t125 77t153.5 28zM373 1281l170 172l174 -174l-172 -172zM379 -340l170 172l174 -174l-172 -172z" />
    <glyph glyph-name="uni06A3.fina" unicode="&#x6a3;" horiz-adv-x="2122" 
d="M1024 162q27 0 75 1.5t101 4.5t102.5 8t80.5 13q-33 30 -56.5 66t-38.5 75.5t-22 82t-7 84.5q0 73 30.5 140t84 117.5t125 80.5t153.5 30q86 0 154 -31.5t115 -83.5t72 -118t25 -135q0 -87 -27.5 -160t-82.5 -142q16 -1 37.5 -2t45 -2t46 -1.5t40.5 -0.5h73v-189h-73
q-130 0 -238.5 11.5t-196.5 36.5q-49 -18 -124.5 -32t-161 -23t-173 -14t-159.5 -5q-129 0 -247 3t-221.5 20.5t-191 56t-154.5 109.5q-43 45 -62.5 107t-19.5 137q0 51 7.5 102.5t16.5 94t16.5 70t8.5 29.5l180 -55l-6.5 -23t-14.5 -58t-14 -77.5t-6 -82.5q0 -60 30.5 -102
t82.5 -69t121 -42t147.5 -22t162 -8.5t164.5 -1.5zM1440 496q0 -50 14.5 -88.5t41 -68.5t64.5 -53t85 -40q45 17 81 39.5t61.5 52.5t39.5 69t14 90q0 34 -15.5 66.5t-42 57.5t-60.5 40t-71 15q-42 0 -80.5 -14t-68 -38t-46.5 -57t-17 -71zM1474 1281l170 172l174 -174
l-172 -172zM1480 -340l170 172l174 -174l-172 -172z" />
    <glyph glyph-name="uni06A4.init" unicode="&#x6a4;" horiz-adv-x="1004" arabic-form="initial" 
d="M-12 0v189h384q112 0 180.5 16t106.5 40t51.5 52.5t16.5 54.5h-152q-26 0 -58 2t-66.5 7.5t-69.5 16.5t-68 29q-27 16 -55 40t-50.5 59.5t-37 84t-14.5 113.5q0 81 28 153.5t80 124.5t119 79t143 27q87 0 160 -37t123 -106q54 -72 80 -178t26 -243v-138q0 -99 -39.5 -176
t-119.5 -125q-133 -85 -384 -85h-384zM526 899q-33 0 -67.5 -11.5t-62 -35t-45 -60.5t-17.5 -88q0 -33 7 -55.5t18 -37t23 -23.5t23 -15q29 -17 71 -24.5t99 -7.5h154q-2 99 -20.5 173t-50.5 121q-48 64 -132 64zM657 1700l-142 -139l-140 139l144 143zM706 1248l-158 160
l156 162l162 -162zM323 1250l-158 160l156 162l162 -162z" />
    <glyph glyph-name="uni06A4.medi" unicode="&#x6a4;" horiz-adv-x="1099" arabic-form="medial" 
d="M565 246q45 16 81 40t61.5 56t39.5 73t14 93q0 30 -15.5 60t-42 54t-60.5 39t-71 15q-42 0 -80.5 -13.5t-68 -36t-46.5 -53.5t-17 -65q-2 -50 12.5 -91t41.5 -73t65.5 -56.5t85.5 -41.5zM572 865q86 0 154 -30t115 -79.5t72 -114t25 -133.5q0 -97 -27.5 -175t-83.5 -138
q76 -6 164 -6h116v-189h-116q-256 0 -428 48q-88 -24 -202 -36t-260 -12h-119v189h119q109 0 195 6q-59 61 -88 139.5t-29 173.5q0 73 30.5 138t84 114t125 77t153.5 28zM695 1565l-142 -139l-140 139l144 143zM744 1113l-158 160l156 162l162 -162zM361 1115l-158 160
l156 162l162 -162z" />
    <glyph glyph-name="uni06A4.fina" unicode="&#x6a4;" horiz-adv-x="2122" arabic-form="final" 
d="M1024 162q27 0 75 1.5t101 4.5t102.5 8t80.5 13q-33 30 -56.5 66t-38.5 75.5t-22 82t-7 84.5q0 73 30.5 140t84 117.5t125 80.5t153.5 30q86 0 154 -31.5t115 -83.5t72 -118t25 -135q0 -87 -27.5 -160t-82.5 -142q16 -1 37.5 -2t45 -2t46 -1.5t40.5 -0.5h73v-189h-73
q-130 0 -238.5 11.5t-196.5 36.5q-49 -18 -124.5 -32t-161 -23t-173 -14t-159.5 -5q-129 0 -247 3t-221.5 20.5t-191 56t-154.5 109.5q-43 45 -62.5 107t-19.5 137q0 51 7.5 102.5t16.5 94t16.5 70t8.5 29.5l180 -55l-6.5 -23t-14.5 -58t-14 -77.5t-6 -82.5q0 -60 30.5 -102
t82.5 -69t121 -42t147.5 -22t162 -8.5t164.5 -1.5zM1440 496q0 -50 14.5 -88.5t41 -68.5t64.5 -53t85 -40q45 17 81 39.5t61.5 52.5t39.5 69t14 90q0 34 -15.5 66.5t-42 57.5t-60.5 40t-71 15q-42 0 -80.5 -14t-68 -38t-46.5 -57t-17 -71zM1777 1601l-142 -139l-140 139
l144 143zM1826 1149l-158 160l156 162l162 -162zM1443 1151l-158 160l156 162l162 -162z" />
    <glyph glyph-name="uni06A5.init" unicode="&#x6a5;" horiz-adv-x="1019" 
d="M-6 0v189h384q112 0 180.5 16t106.5 40t51.5 52.5t16.5 54.5h-152q-26 0 -58 2t-66.5 7.5t-69.5 16.5t-68 29q-27 16 -55 40t-50.5 59.5t-37 84t-14.5 113.5q0 81 28 153.5t80 124.5t119 79t143 27q87 0 160 -37t123 -106q54 -72 80 -178t26 -243v-138q0 -99 -39.5 -176
t-119.5 -125q-133 -85 -384 -85h-384zM532 899q-33 0 -67.5 -11.5t-62 -35t-45 -60.5t-17.5 -88q0 -33 7 -55.5t18 -37t23 -23.5t23 -15q29 -17 71 -24.5t99 -7.5h154q-2 99 -20.5 173t-50.5 121q-48 64 -132 64zM504 -780l-144 143l140 139l142 -139zM851 -345l-162 -162
l-156 162l158 160zM468 -347l-162 -162l-156 162l158 160z" />
    <glyph glyph-name="uni06A5.medi" unicode="&#x6a5;" horiz-adv-x="1099" 
d="M571 246q45 16 81 40t61.5 56t39.5 73t14 93q0 30 -15.5 60t-42 54t-60.5 39t-71 15q-42 0 -80.5 -13.5t-68 -36t-46.5 -53.5t-17 -65q-2 -50 12.5 -91t41.5 -73t65.5 -56.5t85.5 -41.5zM578 865q86 0 154 -30t115 -79.5t72 -114t25 -133.5q0 -97 -27.5 -175t-83.5 -138
q76 -6 164 -6h116v-189h-116q-256 0 -428 48q-88 -24 -202 -36t-260 -12h-119v189h119q109 0 195 6q-59 61 -88 139.5t-29 173.5q0 73 30.5 138t84 114t125 77t153.5 28zM545 -780l-144 143l140 139l142 -139zM892 -345l-162 -162l-156 162l158 160zM509 -347l-162 -162
l-156 162l158 160z" />
    <glyph glyph-name="uni06A5.fina" unicode="&#x6a5;" horiz-adv-x="2139" 
d="M1024 162q27 0 75 1.5t101 4.5t102.5 8t80.5 13q-33 30 -56.5 66t-38.5 75.5t-22 82t-7 84.5q0 73 30.5 140t84 117.5t125 80.5t153.5 30q86 0 154 -31.5t115 -83.5t72 -118t25 -135q0 -87 -27.5 -160t-82.5 -142q16 -1 37.5 -2t45 -2t46 -1.5t40.5 -0.5h73v-189h-73
q-130 0 -238.5 11.5t-196.5 36.5q-49 -18 -124.5 -32t-161 -23t-173 -14t-159.5 -5q-129 0 -247 3t-221.5 20.5t-191 56t-154.5 109.5q-43 45 -62.5 107t-19.5 137q0 51 7.5 102.5t16.5 94t16.5 70t8.5 29.5l180 -55l-6.5 -23t-14.5 -58t-14 -77.5t-6 -82.5q0 -60 30.5 -102
t82.5 -69t121 -42t147.5 -22t162 -8.5t164.5 -1.5zM1440 496q0 -50 14.5 -88.5t41 -68.5t64.5 -53t85 -40q45 17 81 39.5t61.5 52.5t39.5 69t14 90q0 34 -15.5 66.5t-42 57.5t-60.5 40t-71 15q-42 0 -80.5 -14t-68 -38t-46.5 -57t-17 -71zM1625 -788l-144 143l140 139
l142 -139zM1972 -353l-162 -162l-156 162l158 160zM1589 -355l-162 -162l-156 162l158 160z" />
    <glyph glyph-name="uni06A6.init" unicode="&#x6a6;" horiz-adv-x="1033" arabic-form="initial" 
d="M-12 0v189h384q112 0 180.5 16t106.5 40t51.5 52.5t16.5 54.5h-152q-26 0 -58 2t-66.5 7.5t-69.5 16.5t-68 29q-27 16 -55 40t-50.5 59.5t-37 84t-14.5 113.5q0 81 28 153.5t80 124.5t119 79t143 27q87 0 160 -37t123 -106q54 -72 80 -178t26 -243v-138q0 -99 -39.5 -176
t-119.5 -125q-133 -85 -384 -85h-384zM526 899q-33 0 -67.5 -11.5t-62 -35t-45 -60.5t-17.5 -88q0 -33 7 -55.5t18 -37t23 -23.5t23 -15q29 -17 71 -24.5t99 -7.5h154q-2 99 -20.5 173t-50.5 121q-48 64 -132 64zM686 1231l-138 139l136 141l141 -141zM326 1233l-137 139
l136 141l141 -142zM686 1563l-138 141l136 139l141 -140zM326 1565l-137 140l136 140l141 -141z" />
    <glyph glyph-name="uni06A6.medi" unicode="&#x6a6;" horiz-adv-x="1099" arabic-form="medial" 
d="M565 246q45 16 81 40t61.5 56t39.5 73t14 93q0 30 -15.5 60t-42 54t-60.5 39t-71 15q-42 0 -80.5 -13.5t-68 -36t-46.5 -53.5t-17 -65q-2 -50 12.5 -91t41.5 -73t65.5 -56.5t85.5 -41.5zM572 865q86 0 154 -30t115 -79.5t72 -114t25 -133.5q0 -97 -27.5 -175t-83.5 -138
q76 -6 164 -6h116v-189h-116q-256 0 -428 48q-88 -24 -202 -36t-260 -12h-119v189h119q109 0 195 6q-59 61 -88 139.5t-29 173.5q0 73 30.5 138t84 114t125 77t153.5 28zM705 1066l-138 139l136 141l141 -141zM345 1068l-137 139l136 141l141 -142zM705 1398l-138 141
l136 139l141 -140zM345 1400l-137 140l136 140l141 -141z" />
    <glyph glyph-name="uni06A6.fina" unicode="&#x6a6;" horiz-adv-x="2133" arabic-form="final" 
d="M1024 162q27 0 75 1.5t101 4.5t102.5 8t80.5 13q-33 30 -56.5 66t-38.5 75.5t-22 82t-7 84.5q0 73 30.5 140t84 117.5t125 80.5t153.5 30q86 0 154 -31.5t115 -83.5t72 -118t25 -135q0 -87 -27.5 -160t-82.5 -142q16 -1 37.5 -2t45 -2t46 -1.5t40.5 -0.5h73v-189h-73
q-130 0 -238.5 11.5t-196.5 36.5q-49 -18 -124.5 -32t-161 -23t-173 -14t-159.5 -5q-129 0 -247 3t-221.5 20.5t-191 56t-154.5 109.5q-43 45 -62.5 107t-19.5 137q0 51 7.5 102.5t16.5 94t16.5 70t8.5 29.5l180 -55l-6.5 -23t-14.5 -58t-14 -77.5t-6 -82.5q0 -60 30.5 -102
t82.5 -69t121 -42t147.5 -22t162 -8.5t164.5 -1.5zM1440 496q0 -50 14.5 -88.5t41 -68.5t64.5 -53t85 -40q45 17 81 39.5t61.5 52.5t39.5 69t14 90q0 34 -15.5 66.5t-42 57.5t-60.5 40t-71 15q-42 0 -80.5 -14t-68 -38t-46.5 -57t-17 -71zM1788 1057l-138 139l136 141
l141 -141zM1428 1059l-137 139l136 141l141 -142zM1788 1389l-138 141l136 139l141 -140zM1428 1391l-137 140l136 140l141 -141z" />
    <glyph glyph-name="uni06A7.fina" unicode="&#x6a7;" horiz-adv-x="1664" 
d="M794 -554h-100q-77 0 -148 17.5t-133.5 50.5t-114 81.5t-89.5 110.5q-54 85 -78 188.5t-17.5 221.5t43.5 247.5t105 267.5l170 -81q-56 -116 -88.5 -222.5t-40.5 -201.5t8 -176t57 -145q50 -81 135 -125.5t191 -44.5h90v2q151 0 254 23t163 71q52 42 76.5 107t24.5 162
h-184q-70 0 -142 21t-130.5 69t-95.5 125.5t-37 189.5q0 66 11.5 119.5t29 95.5t38.5 73t41 53q55 55 126 85t152 30q71 0 133 -22t111 -66q135 -126 135 -395v-189h187v-189h-187q0 -142 -41.5 -244.5t-128.5 -171.5t-214.5 -102t-311.5 -34v-2zM1111 672q-99 0 -154 -70
t-55 -197q0 -129 78 -179q19 -12 39 -19.5t39 -11t34.5 -5t25.5 -1.5h184v189q0 73 -11 123.5t-28 83.5t-38.5 50.5t-42.5 25.5t-40 9.5t-31 1.5zM937 1310l170 172l174 -174l-172 -172z" />
    <glyph glyph-name="uni06A8.fina" unicode="&#x6a8;" horiz-adv-x="1664" 
d="M794 -554h-100q-77 0 -148 17.5t-133.5 50.5t-114 81.5t-89.5 110.5q-54 85 -78 188.5t-17.5 221.5t43.5 247.5t105 267.5l170 -81q-56 -116 -88.5 -222.5t-40.5 -201.5t8 -176t57 -145q50 -81 135 -125.5t191 -44.5h90v2q151 0 254 23t163 71q52 42 76.5 107t24.5 162
h-184q-70 0 -142 21t-130.5 69t-95.5 125.5t-37 189.5q0 66 11.5 119.5t29 95.5t38.5 73t41 53q55 55 126 85t152 30q71 0 133 -22t111 -66q135 -126 135 -395v-189h187v-189h-187q0 -142 -41.5 -244.5t-128.5 -171.5t-214.5 -102t-311.5 -34v-2zM1111 672q-99 0 -154 -70
t-55 -197q0 -129 78 -179q19 -12 39 -19.5t39 -11t34.5 -5t25.5 -1.5h184v189q0 73 -11 123.5t-28 83.5t-38.5 50.5t-42.5 25.5t-40 9.5t-31 1.5zM1244 1583l-142 -139l-140 139l144 143zM1293 1131l-158 160l156 162l162 -162zM910 1133l-158 160l156 162l162 -162z" />
    <glyph glyph-name="uni06A9" unicode="&#x6a9;" horiz-adv-x="1997" arabic-form="isolated" 
d="M1057 180q124 0 220 3t164.5 14t109.5 32t56 57q8 25 -2.5 61.5t-34.5 80t-58.5 90.5t-75.5 93q-81 89 -152 155t-127.5 112t-96.5 72.5t-60 37.5l15 227l902 388l76 -172l-791 -342q38 -28 82.5 -64.5t92.5 -81.5t98 -97.5t100 -110.5q38 -46 75 -96t66 -102.5t47 -106
t18 -106.5v-18.5t-2 -19.5q-9 -71 -40.5 -120.5t-80.5 -82t-114.5 -51t-143 -27.5t-164.5 -11t-179 -2q-102 0 -194 0.5t-173 4.5t-151 12.5t-130 24.5q-143 39 -215 123q-82 92 -82 244q0 51 7.5 102.5t16.5 94t16.5 70t8.5 29.5l180 -55l-6.5 -23t-14 -58t-14 -77.5
t-6.5 -82.5t8.5 -69.5t27 -51t48.5 -37t74 -27.5q102 -27 253 -31.5t346 -4.5z" />
    <glyph glyph-name="uni06AA.init" unicode="&#x6aa;" horiz-adv-x="1702" 
d="M1515 0h-1532v189h1435q-6 69 -25.5 123.5t-58.5 92.5t-101.5 58t-154.5 20q-168 0 -296 0.5t-223 3.5t-161.5 9.5t-111.5 17.5t-73 28t-46 42q-18 23 -24.5 47.5t-6.5 47t4.5 41.5t8.5 30q59 214 427 407q64 33 124 59t107 44t76 28.5t31 11.5l90 27l58 -179l-90 -28
q-1 -1 -27.5 -10t-70 -26t-99 -41.5t-114.5 -55.5q-143 -75 -228.5 -148.5t-104.5 -139.5v-2q17 -5 56.5 -10t113.5 -8q46 -3 103 -4t128 -2t157.5 -1h191.5q332 0 460 -226q27 -48 41 -99t21 -98.5t8 -87.5t1 -67z" />
    <glyph glyph-name="uni06AA.medi" unicode="&#x6aa;" horiz-adv-x="1953" 
d="M-19 0v189h1404q36 0 52.5 9.5t19.5 25.5t-4.5 37.5t-19.5 45.5q-20 33 -55 65t-81 56.5t-101.5 39.5t-117.5 15q-169 0 -297 1t-223 4t-161.5 9.5t-111.5 17.5t-73 28t-47 41q-17 24 -23 49t-6 47.5t4 41t7 30.5q29 108 136.5 208.5t293.5 196.5q64 34 123.5 60t106 44
t75 28t30.5 11l90 29l60 -179l-90 -30q-1 0 -27.5 -9t-70 -25.5t-99.5 -41t-116 -55.5q-142 -75 -226.5 -148t-104.5 -139v-3q17 -5 56.5 -10t113.5 -8q46 -3 102.5 -4.5t127.5 -2.5t158 -1.5t192 -0.5q111 0 212.5 -37t180.5 -106q45 -41 79 -82.5t63.5 -79t57 -70t61 -57
t75 -38t99.5 -13.5h67v-189h-67q-53 0 -97.5 7t-82 21t-70 33.5t-62.5 45.5q-8 -13 -17.5 -23.5t-20.5 -19.5q-36 -31 -83.5 -47.5t-106.5 -16.5h-1385z" />
    <glyph glyph-name="uni06AA.fina" unicode="&#x6aa;" horiz-adv-x="2511" 
d="M447 0q-65 0 -128 22t-113 67.5t-81 115t-31 165.5q0 49 10 108t22 112t23 91.5t14 47.5l179 -57q-6 -20 -16 -57t-19.5 -80.5t-16.5 -87.5t-7 -77q0 -63 20 -99.5t47 -54.5t54.5 -22.5t42.5 -4.5h1498q36 0 52.5 9.5t19.5 25.5t-4.5 37.5t-19.5 45.5q-20 33 -55 65
t-81 56.5t-101.5 39.5t-117.5 15q-169 0 -297 1t-223 4t-161.5 9.5t-111.5 17.5t-73 28t-47 41q-17 24 -23 49t-6 47.5t4 41t7 30.5q29 108 136.5 208.5t293.5 196.5q64 34 123.5 60t106 44t75 28t30.5 11l90 29l60 -179l-90 -30q-1 0 -27.5 -9t-70 -25.5t-99.5 -41
t-116 -55.5q-142 -75 -226.5 -148t-104.5 -139v-3q17 -5 56.5 -10t113.5 -8q46 -3 102.5 -4.5t127.5 -2.5t158 -1.5t192 -0.5q111 0 212.5 -37t180.5 -106q45 -41 79 -82.5t63.5 -79t57 -70t61 -57t75 -38t99.5 -13.5h67v-189h-67q-53 0 -97.5 7t-82 21t-70 33.5t-62.5 45.5
q-8 -13 -17.5 -23.5t-20.5 -19.5q-36 -31 -83.5 -47.5t-106.5 -16.5h-1479z" />
    <glyph glyph-name="uni06AB.init" unicode="&#x6ab;" horiz-adv-x="1180" 
d="M-23 0v189h586q72 0 119.5 16.5t61.5 45.5q13 29 0.5 71.5t-43.5 94t-76 108.5t-97 114t-107 111.5t-106 101t-93 82t-69 54.5l19 213l915 402l76 -172l-801 -350q30 -30 77 -75.5t102 -101t112 -118t108 -125.5t90.5 -123.5t58.5 -111.5q17 -44 23.5 -82t5.5 -69.5
t-7.5 -56.5t-14.5 -43q-11 -25 -34 -55.5t-64.5 -57t-103.5 -44.5t-152 -18h-586zM866 924q-51 0 -92 15t-70.5 42.5t-45 67.5t-15.5 90q0 51 16 90.5t45 67.5t70 42.5t92 14.5q102 0 166 -59q63 -59 63 -154q0 -100 -63 -158q-64 -59 -166 -59zM866 1027q49 0 81 29t32 83
t-32 83.5t-81 29.5q-51 0 -82 -29.5t-31 -83.5q0 -112 113 -112z" />
    <glyph glyph-name="uni06AB.medi" unicode="&#x6ab;" horiz-adv-x="1254" 
d="M1268 0h-15q-89 0 -158.5 17t-126.5 48.5t-105 76t-94 99.5q-2 -5 -4 -9t-4 -9q-28 -55 -78.5 -99t-119.5 -73q-59 -26 -131 -38.5t-150 -12.5h-294v189h294q58 0 108.5 8.5t91 24t69 37.5t42.5 49q24 49 4.5 119t-82.5 155q-89 125 -151 212t-101 142q-46 64 -75 105
l37 140l918 424l78 -173l-819 -375l397 -551q61 -82 109 -141.5t97.5 -98.5t108 -58t139.5 -19h15v-189zM907 898q-51 0 -92 15t-70.5 42.5t-45 67.5t-15.5 90q0 51 16 90.5t45 67.5t70 42.5t92 14.5q102 0 166 -59q63 -59 63 -154q0 -100 -63 -158q-64 -59 -166 -59z
M907 1001q49 0 81 29t32 83t-32 83.5t-81 29.5q-51 0 -82 -29.5t-31 -83.5q0 -112 113 -112z" />
    <glyph glyph-name="uni06AB.fina" unicode="&#x6ab;" horiz-adv-x="2193" 
d="M1056 183q114 0 199.5 6.5t145 20t94.5 32.5t48 45q17 33 16.5 69t-13.5 73t-36 75.5t-51 77.5l-316 441l35 164l899 412l77 -172l-806 -370l342 -481q79 -105 137 -178.5t112 -120t111 -67.5t133 -21h21v-189h-21q-86 0 -152.5 17t-121.5 48.5t-103 76.5t-96 100
q-20 -62 -55.5 -104t-83.5 -69.5t-106.5 -42.5t-124.5 -22t-138 -8t-146 -1q-102 0 -194 0.5t-173 4.5t-151 12.5t-130 24.5q-143 39 -215 123q-82 92 -82 244q0 51 7.5 102.5t16.5 94t16.5 70t8.5 29.5l180 -55l-6.5 -23t-14 -58t-14 -77.5t-6.5 -82.5t8.5 -69.5t27 -51
t48.5 -37t74 -27.5q102 -27 253 -31.5t346 -4.5zM1885 914q-51 0 -92 15t-70.5 42.5t-45 67.5t-15.5 90q0 51 16 90.5t45 67.5t70 42.5t92 14.5q102 0 166 -59q63 -59 63 -154q0 -100 -63 -158q-64 -59 -166 -59zM1885 1017q49 0 81 29t32 83t-32 83.5t-81 29.5
q-51 0 -82 -29.5t-31 -83.5q0 -112 113 -112z" />
    <glyph glyph-name="uni06AC.init" unicode="&#x6ac;" horiz-adv-x="1180" 
d="M-23 0v189h586q72 0 119.5 16.5t61.5 45.5q13 29 0.5 71.5t-43.5 94t-76 108.5t-97 114t-107 111.5t-106 101t-93 82t-69 54.5l19 213l915 402l76 -172l-801 -350q30 -30 77 -75.5t102 -101t112 -118t108 -125.5t90.5 -123.5t58.5 -111.5q17 -44 23.5 -82t5.5 -69.5
t-7.5 -56.5t-14.5 -43q-11 -25 -34 -55.5t-64.5 -57t-103.5 -44.5t-152 -18h-586zM373 1697l170 172l174 -174l-172 -172z" />
    <glyph glyph-name="uni06AC.medi" unicode="&#x6ac;" horiz-adv-x="1250" 
d="M1268 0h-15q-89 0 -158.5 17t-126.5 48.5t-105 76t-94 99.5q-2 -5 -4 -9t-4 -9q-28 -55 -78.5 -99t-119.5 -73q-59 -26 -131 -38.5t-150 -12.5h-294v189h294q58 0 108.5 8.5t91 24t69 37.5t42.5 49q24 49 4.5 119t-82.5 155q-89 125 -151 212t-101 142q-46 64 -75 105
l37 140l918 424l78 -173l-819 -375l397 -551q61 -82 109 -141.5t97.5 -98.5t108 -58t139.5 -19h15v-189zM373 1697l170 172l174 -174l-172 -172z" />
    <glyph glyph-name="uni06AC.fina" unicode="&#x6ac;" horiz-adv-x="2160" 
d="M920 487l-22 111q67 13 117 27.5t84.5 28t53 24.5t22.5 17q-6 2 -21.5 2.5t-32.5 0t-33.5 -1.5t-25.5 -2q-28 -2 -57.5 -2.5t-57 5.5t-50 20.5t-35.5 43.5q-59 135 212 296l57 -98q-53 -32 -89 -58.5t-57.5 -46.5t-30.5 -33.5t-9 -18.5q6 -2 20 -2t30.5 1.5t33 3.5
t26.5 2q26 2 52.5 2.5t51.5 -3.5q24 -4 41 -12t28.5 -18.5t18 -22.5t10.5 -23q14 -49 -11 -92q-58 -98 -326 -151zM1073 187q113 0 215 5.5t185 16.5t143 28.5t89 41.5q18 20 29 55.5t11 89.5v1004h189v-1014q1 -48 14 -89t36.5 -71t55.5 -47.5t72 -17.5h58v-189h-58
q-39 0 -79.5 9t-77.5 26.5t-68 43.5t-51 61q-43 -45 -117 -72.5t-172.5 -42.5t-218.5 -20.5t-255 -5.5q-102 0 -194 0.5t-173 4.5t-151 12.5t-130 24.5q-143 39 -215 123q-82 92 -82 244q0 51 7.5 102.5t16.5 94t16.5 70t8.5 29.5l180 -55l-6.5 -23t-14 -58t-14 -77.5
t-6.5 -82.5t8.5 -69.5t27 -51t48.5 -37t74 -27.5q102 -27 253 -31.5t346 -4.5zM834 1427l170 172l174 -174l-172 -172z" />
    <glyph glyph-name="uni06AD.init" unicode="&#x6ad;" horiz-adv-x="1180" arabic-form="initial" 
d="M-23 0v189h586q72 0 119.5 16.5t61.5 45.5q13 29 0.5 71.5t-43.5 94t-76 108.5t-97 114t-107 111.5t-106 101t-93 82t-69 54.5l19 213l915 402l76 -172l-801 -350q30 -30 77 -75.5t102 -101t112 -118t108 -125.5t90.5 -123.5t58.5 -111.5q17 -44 23.5 -82t5.5 -69.5
t-7.5 -56.5t-14.5 -43q-11 -25 -34 -55.5t-64.5 -57t-103.5 -44.5t-152 -18h-586zM685 1552l-137 45l41 136l139 -45zM443 1428l-137 44l42 136l138 -44zM477 1658l-138 45l42 136l139 -45z" />
    <glyph glyph-name="uni06AD.medi" unicode="&#x6ad;" horiz-adv-x="1250" arabic-form="medial" 
d="M1268 0h-15q-89 0 -158.5 17t-126.5 48.5t-105 76t-94 99.5q-2 -5 -4 -9t-4 -9q-28 -55 -78.5 -99t-119.5 -73q-59 -26 -131 -38.5t-150 -12.5h-294v189h294q58 0 108.5 8.5t91 24t69 37.5t42.5 49q24 49 4.5 119t-82.5 155q-89 125 -151 212t-101 142q-46 64 -75 105
l37 140l918 424l78 -173l-819 -375l397 -551q61 -82 109 -141.5t97.5 -98.5t108 -58t139.5 -19h15v-189zM685 1552l-137 45l41 136l139 -45zM443 1428l-137 44l42 136l138 -44zM477 1658l-138 45l42 136l139 -45z" />
    <glyph glyph-name="uni06AD.fina" unicode="&#x6ad;" horiz-adv-x="2160" arabic-form="final" 
d="M920 487l-22 111q67 13 117 27.5t84.5 28t53 24.5t22.5 17q-6 2 -21.5 2.5t-32.5 0t-33.5 -1.5t-25.5 -2q-28 -2 -57.5 -2.5t-57 5.5t-50 20.5t-35.5 43.5q-59 135 212 296l57 -98q-53 -32 -89 -58.5t-57.5 -46.5t-30.5 -33.5t-9 -18.5q6 -2 20 -2t30.5 1.5t33 3.5
t26.5 2q26 2 52.5 2.5t51.5 -3.5q24 -4 41 -12t28.5 -18.5t18 -22.5t10.5 -23q14 -49 -11 -92q-58 -98 -326 -151zM1073 187q113 0 215 5.5t185 16.5t143 28.5t89 41.5q18 20 29 55.5t11 89.5v1004h189v-1014q1 -48 14 -89t36.5 -71t55.5 -47.5t72 -17.5h58v-189h-58
q-39 0 -79.5 9t-77.5 26.5t-68 43.5t-51 61q-43 -45 -117 -72.5t-172.5 -42.5t-218.5 -20.5t-255 -5.5q-102 0 -194 0.5t-173 4.5t-151 12.5t-130 24.5q-143 39 -215 123q-82 92 -82 244q0 51 7.5 102.5t16.5 94t16.5 70t8.5 29.5l180 -55l-6.5 -23t-14 -58t-14 -77.5
t-6.5 -82.5t8.5 -69.5t27 -51t48.5 -37t74 -27.5q102 -27 253 -31.5t346 -4.5zM1152 1611l-142 -139l-140 139l144 143zM1201 1159l-158 160l156 162l162 -162zM818 1161l-158 160l156 162l162 -162z" />
    <glyph glyph-name="uni06AE.init" unicode="&#x6ae;" horiz-adv-x="1180" 
d="M-23 0v189h586q72 0 119.5 16.5t61.5 45.5q13 29 0.5 71.5t-43.5 94t-76 108.5t-97 114t-107 111.5t-106 101t-93 82t-69 54.5l19 213l915 402l76 -172l-801 -350q30 -30 77 -75.5t102 -101t112 -118t108 -125.5t90.5 -123.5t58.5 -111.5q17 -44 23.5 -82t5.5 -69.5
t-7.5 -56.5t-14.5 -43q-11 -25 -34 -55.5t-64.5 -57t-103.5 -44.5t-152 -18h-586zM511 -780l-144 143l140 139l142 -139zM858 -345l-162 -162l-156 162l158 160zM475 -347l-162 -162l-156 162l158 160z" />
    <glyph glyph-name="uni06AE.medi" unicode="&#x6ae;" horiz-adv-x="1250" 
d="M1268 0h-15q-89 0 -158.5 17t-126.5 48.5t-105 76t-94 99.5q-2 -5 -4 -9t-4 -9q-28 -55 -78.5 -99t-119.5 -73q-59 -26 -131 -38.5t-150 -12.5h-294v189h294q58 0 108.5 8.5t91 24t69 37.5t42.5 49q24 49 4.5 119t-82.5 155q-89 125 -151 212t-101 142q-46 64 -75 105
l37 140l918 424l78 -173l-819 -375l397 -551q61 -82 109 -141.5t97.5 -98.5t108 -58t139.5 -19h15v-189zM654 -775l-144 143l140 139l142 -139zM1001 -340l-162 -162l-156 162l158 160zM618 -342l-162 -162l-156 162l158 160z" />
    <glyph glyph-name="uni06AE.fina" unicode="&#x6ae;" horiz-adv-x="2164" 
d="M920 487l-22 111q67 13 117 27.5t84.5 28t53 24.5t22.5 17q-6 2 -21.5 2.5t-32.5 0t-33.5 -1.5t-25.5 -2q-28 -2 -57.5 -2.5t-57 5.5t-50 20.5t-35.5 43.5q-59 135 212 296l57 -98q-53 -32 -89 -58.5t-57.5 -46.5t-30.5 -33.5t-9 -18.5q6 -2 20 -2t30.5 1.5t33 3.5
t26.5 2q26 2 52.5 2.5t51.5 -3.5q24 -4 41 -12t28.5 -18.5t18 -22.5t10.5 -23q14 -49 -11 -92q-58 -98 -326 -151zM1073 187q113 0 215 5.5t185 16.5t143 28.5t89 41.5q18 20 29 55.5t11 89.5v1004h189v-1014q1 -48 14 -89t36.5 -71t55.5 -47.5t72 -17.5h58v-189h-58
q-39 0 -79.5 9t-77.5 26.5t-68 43.5t-51 61q-43 -45 -117 -72.5t-172.5 -42.5t-218.5 -20.5t-255 -5.5q-102 0 -194 0.5t-173 4.5t-151 12.5t-130 24.5q-143 39 -215 123q-82 92 -82 244q0 51 7.5 102.5t16.5 94t16.5 70t8.5 29.5l180 -55l-6.5 -23t-14 -58t-14 -77.5
t-6.5 -82.5t8.5 -69.5t27 -51t48.5 -37t74 -27.5q102 -27 253 -31.5t346 -4.5zM995 -783l-144 143l140 139l142 -139zM1342 -348l-162 -162l-156 162l158 160zM959 -350l-162 -162l-156 162l158 160z" />
    <glyph glyph-name="uni06AF" unicode="&#x6af;" horiz-adv-x="2004" arabic-form="isolated" 
d="M1057 182q124 0 220 3t164.5 14t109.5 32t56 57q8 25 -2.5 61.5t-34.5 80t-58.5 90.5t-75.5 93q-81 89 -152 155t-127.5 112t-96.5 72.5t-60 37.5l15 227l902 388l76 -172l-791 -342q38 -28 82.5 -64.5t92.5 -81.5t98 -97.5t100 -110.5q38 -46 75 -96t66 -102.5t47 -106
t18 -106.5v-18.5t-2 -19.5q-9 -71 -40.5 -120.5t-80.5 -82t-114.5 -51t-143 -27.5t-164.5 -11t-179 -2q-102 0 -194 0.5t-173 4.5t-151 12.5t-130 24.5q-143 39 -215 123q-82 92 -82 244q0 51 7.5 102.5t16.5 94t16.5 70t8.5 29.5l180 -55l-6.5 -23t-14 -58t-14 -77.5
t-6.5 -82.5t8.5 -69.5t27 -51t48.5 -37t74 -27.5q102 -27 253 -31.5t346 -4.5zM1032.07 1488.56l790.178 334.484l43.7246 -92.0596l-845.354 -360.057z" />
    <glyph glyph-name="uni06B0.init" unicode="&#x6b0;" horiz-adv-x="1180" 
d="M208 1425l759 327l42 -90l-812 -352zM-23 0v189h586q72 0 119.5 16.5t61.5 45.5q13 29 0.5 71.5t-43.5 94t-76 108.5t-97 114t-107 111.5t-106 101t-93 82t-69 54.5l19 213l915 402l76 -172l-801 -350q30 -30 77 -75.5t102 -101t112 -118t108 -125.5t90.5 -123.5
t58.5 -111.5q17 -44 23.5 -82t5.5 -69.5t-7.5 -56.5t-14.5 -43q-11 -25 -34 -55.5t-64.5 -57t-103.5 -44.5t-152 -18h-586zM866 924q-51 0 -92 15t-70.5 42.5t-45 67.5t-15.5 90q0 51 16 90.5t45 67.5t70 42.5t92 14.5q102 0 166 -59q63 -59 63 -154q0 -100 -63 -158
q-64 -59 -166 -59zM866 1027q49 0 81 29t32 83t-32 83.5t-81 29.5q-51 0 -82 -29.5t-31 -83.5q0 -112 113 -112z" />
    <glyph glyph-name="uni06B0.medi" unicode="&#x6b0;" horiz-adv-x="1250" 
d="M245 1427l759 327l42 -90l-812 -352zM1268 0h-15q-89 0 -158.5 17t-126.5 48.5t-105 76t-94 99.5q-2 -5 -4 -9t-4 -9q-28 -55 -78.5 -99t-119.5 -73q-59 -26 -131 -38.5t-150 -12.5h-294v189h294q58 0 108.5 8.5t91 24t69 37.5t42.5 49q24 49 4.5 119t-82.5 155
q-89 125 -151 212t-101 142q-46 64 -75 105l37 140l918 424l78 -173l-819 -375l397 -551q61 -82 109 -141.5t97.5 -98.5t108 -58t139.5 -19h15v-189zM907 898q-51 0 -92 15t-70.5 42.5t-45 67.5t-15.5 90q0 51 16 90.5t45 67.5t70 42.5t92 14.5q102 0 166 -59
q63 -59 63 -154q0 -100 -63 -158q-64 -59 -166 -59zM907 1001q49 0 81 29t32 83t-32 83.5t-81 29.5q-51 0 -82 -29.5t-31 -83.5q0 -112 113 -112z" />
    <glyph glyph-name="uni06B0.fina" unicode="&#x6b0;" horiz-adv-x="2187" 
d="M1217 1462l759 327l42 -90l-812 -352zM1056 183q114 0 199.5 6.5t145 20t94.5 32.5t48 45q17 33 16.5 69t-13.5 73t-36 75.5t-51 77.5l-316 441l35 164l899 412l77 -172l-806 -370l342 -481q79 -105 137 -178.5t112 -120t111 -67.5t133 -21h21v-189h-21q-86 0 -152.5 17
t-121.5 48.5t-103 76.5t-96 100q-20 -62 -55.5 -104t-83.5 -69.5t-106.5 -42.5t-124.5 -22t-138 -8t-146 -1q-102 0 -194 0.5t-173 4.5t-151 12.5t-130 24.5q-143 39 -215 123q-82 92 -82 244q0 51 7.5 102.5t16.5 94t16.5 70t8.5 29.5l180 -55l-6.5 -23t-14 -58t-14 -77.5
t-6.5 -82.5t8.5 -69.5t27 -51t48.5 -37t74 -27.5q102 -27 253 -31.5t346 -4.5zM1885 914q-51 0 -92 15t-70.5 42.5t-45 67.5t-15.5 90q0 51 16 90.5t45 67.5t70 42.5t92 14.5q102 0 166 -59q63 -59 63 -154q0 -100 -63 -158q-64 -59 -166 -59zM1885 1017q49 0 81 29t32 83
t-32 83.5t-81 29.5q-51 0 -82 -29.5t-31 -83.5q0 -112 113 -112z" />
    <glyph glyph-name="uni06B1.init" unicode="&#x6b1;" horiz-adv-x="1165" arabic-form="initial" 
d="M-23 0v189h586q72 0 119.5 16.5t61.5 45.5q13 29 0.5 71.5t-43.5 94t-76 108.5t-97 114t-107 111.5t-106 101t-93 82t-69 54.5l19 213l915 402l76 -172l-801 -350q30 -30 77 -75.5t102 -101t112 -118t108 -125.5t90.5 -123.5t58.5 -111.5q17 -44 23.5 -82t5.5 -69.5
t-7.5 -56.5t-14.5 -43q-11 -25 -34 -55.5t-64.5 -57t-103.5 -44.5t-152 -18h-586zM198 1467l759 327l42 -90l-812 -352zM627 1778l-139 40l36 138l141 -40zM389 1645l-138 39l36 138l140 -39z" />
    <glyph glyph-name="uni06B1.medi" unicode="&#x6b1;" horiz-adv-x="1245" arabic-form="medial" 
d="M1268 0h-15q-89 0 -158.5 17t-126.5 48.5t-105 76t-94 99.5q-2 -5 -4 -9t-4 -9q-28 -55 -78.5 -99t-119.5 -73q-59 -26 -131 -38.5t-150 -12.5h-294v189h294q58 0 108.5 8.5t91 24t69 37.5t42.5 49q24 49 4.5 119t-82.5 155q-89 125 -151 212t-101 142q-46 64 -75 105
l37 140l918 424l78 -173l-819 -375l397 -551q61 -82 109 -141.5t97.5 -98.5t108 -58t139.5 -19h15v-189zM236 1467l759 327l42 -90l-812 -352zM688 1797l-139 40l36 138l141 -40zM450 1664l-138 39l36 138l140 -39z" />
    <glyph glyph-name="uni06B1.fina" unicode="&#x6b1;" horiz-adv-x="2188" arabic-form="final" 
d="M1056 183q114 0 199.5 6.5t145 20t94.5 32.5t48 45q17 33 16.5 69t-13.5 73t-36 75.5t-51 77.5l-316 441l35 164l899 412l77 -172l-806 -370l342 -481q79 -105 137 -178.5t112 -120t111 -67.5t133 -21h21v-189h-21q-86 0 -152.5 17t-121.5 48.5t-103 76.5t-96 100
q-20 -62 -55.5 -104t-83.5 -69.5t-106.5 -42.5t-124.5 -22t-138 -8t-146 -1q-102 0 -194 0.5t-173 4.5t-151 12.5t-130 24.5q-143 39 -215 123q-82 92 -82 244q0 51 7.5 102.5t16.5 94t16.5 70t8.5 29.5l180 -55l-6.5 -23t-14 -58t-14 -77.5t-6.5 -82.5t8.5 -69.5t27 -51
t48.5 -37t74 -27.5q102 -27 253 -31.5t346 -4.5zM1213 1467l759 327l42 -90l-812 -352zM1642 1797l-139 40l36 138l141 -40zM1404 1664l-138 39l36 138l140 -39z" />
    <glyph glyph-name="uni06B2.init" unicode="&#x6b2;" horiz-adv-x="1180" 
d="M-23 0v189h586q72 0 119.5 16.5t61.5 45.5q13 29 0.5 71.5t-43.5 94t-76 108.5t-97 114t-107 111.5t-106 101t-93 82t-69 54.5l19 213l915 402l76 -172l-801 -350q30 -30 77 -75.5t102 -101t112 -118t108 -125.5t90.5 -123.5t58.5 -111.5q17 -44 23.5 -82t5.5 -69.5
t-7.5 -56.5t-14.5 -43q-11 -25 -34 -55.5t-64.5 -57t-103.5 -44.5t-152 -18h-586zM194 1444l759 327l42 -90l-812 -352zM861 -324l-162 -162l-156 162l158 160zM478 -326l-162 -162l-156 162l158 160z" />
    <glyph glyph-name="uni06B2.medi" unicode="&#x6b2;" horiz-adv-x="1250" 
d="M1268 0h-15q-89 0 -158.5 17t-126.5 48.5t-105 76t-94 99.5q-2 -5 -4 -9t-4 -9q-28 -55 -78.5 -99t-119.5 -73q-59 -26 -131 -38.5t-150 -12.5h-294v189h294q58 0 108.5 8.5t91 24t69 37.5t42.5 49q24 49 4.5 119t-82.5 155q-89 125 -151 212t-101 142q-46 64 -75 105
l37 140l918 424l78 -173l-819 -375l397 -551q61 -82 109 -141.5t97.5 -98.5t108 -58t139.5 -19h15v-189zM251 1457l759 327l42 -90l-812 -352zM977 -329l-162 -162l-156 162l158 160zM594 -331l-162 -162l-156 162l158 160z" />
    <glyph glyph-name="uni06B2.fina" unicode="&#x6b2;" horiz-adv-x="2193" 
d="M1056 183q114 0 199.5 6.5t145 20t94.5 32.5t48 45q17 33 16.5 69t-13.5 73t-36 75.5t-51 77.5l-316 441l35 164l899 412l77 -172l-806 -370l342 -481q79 -105 137 -178.5t112 -120t111 -67.5t133 -21h21v-189h-21q-86 0 -152.5 17t-121.5 48.5t-103 76.5t-96 100
q-20 -62 -55.5 -104t-83.5 -69.5t-106.5 -42.5t-124.5 -22t-138 -8t-146 -1q-102 0 -194 0.5t-173 4.5t-151 12.5t-130 24.5q-143 39 -215 123q-82 92 -82 244q0 51 7.5 102.5t16.5 94t16.5 70t8.5 29.5l180 -55l-6.5 -23t-14 -58t-14 -77.5t-6.5 -82.5t8.5 -69.5t27 -51
t48.5 -37t74 -27.5q102 -27 253 -31.5t346 -4.5zM1211 1457l759 327l42 -90l-812 -352zM1237 -324l-162 -162l-156 162l158 160zM854 -326l-162 -162l-156 162l158 160z" />
    <glyph glyph-name="uni06B3.init" unicode="&#x6b3;" horiz-adv-x="1165" arabic-form="initial" 
d="M-23 0v189h586q72 0 119.5 16.5t61.5 45.5q13 29 0.5 71.5t-43.5 94t-76 108.5t-97 114t-107 111.5t-106 101t-93 82t-69 54.5l19 213l915 402l76 -172l-801 -350q30 -30 77 -75.5t102 -101t112 -118t108 -125.5t90.5 -123.5t58.5 -111.5q17 -44 23.5 -82t5.5 -69.5
t-7.5 -56.5t-14.5 -43q-11 -25 -34 -55.5t-64.5 -57t-103.5 -44.5t-152 -18h-586zM203 1443l759 327l42 -90l-812 -352zM648 -290l-153 -151l-153 149l154 154zM646 -677l-153 -151l-153 149l154 154z" />
    <glyph glyph-name="uni06B3.medi" unicode="&#x6b3;" horiz-adv-x="1250" arabic-form="medial" 
d="M1268 0h-15q-89 0 -158.5 17t-126.5 48.5t-105 76t-94 99.5q-2 -5 -4 -9t-4 -9q-28 -55 -78.5 -99t-119.5 -73q-59 -26 -131 -38.5t-150 -12.5h-294v189h294q58 0 108.5 8.5t91 24t69 37.5t42.5 49q24 49 4.5 119t-82.5 155q-89 125 -151 212t-101 142q-46 64 -75 105
l37 140l918 424l78 -173l-819 -375l397 -551q61 -82 109 -141.5t97.5 -98.5t108 -58t139.5 -19h15v-189zM264 1453l759 327l42 -90l-812 -352zM747 -309l-153 -151l-153 149l154 154zM745 -696l-153 -151l-153 149l154 154z" />
    <glyph glyph-name="uni06B3.fina" unicode="&#x6b3;" horiz-adv-x="2193" arabic-form="final" 
d="M1056 183q114 0 199.5 6.5t145 20t94.5 32.5t48 45q17 33 16.5 69t-13.5 73t-36 75.5t-51 77.5l-316 441l35 164l899 412l77 -172l-806 -370l342 -481q79 -105 137 -178.5t112 -120t111 -67.5t133 -21h21v-189h-21q-86 0 -152.5 17t-121.5 48.5t-103 76.5t-96 100
q-20 -62 -55.5 -104t-83.5 -69.5t-106.5 -42.5t-124.5 -22t-138 -8t-146 -1q-102 0 -194 0.5t-173 4.5t-151 12.5t-130 24.5q-143 39 -215 123q-82 92 -82 244q0 51 7.5 102.5t16.5 94t16.5 70t8.5 29.5l180 -55l-6.5 -23t-14 -58t-14 -77.5t-6.5 -82.5t8.5 -69.5t27 -51
t48.5 -37t74 -27.5q102 -27 253 -31.5t346 -4.5zM1205 1458l759 327l42 -90l-812 -352zM1034 -285l-153 -151l-153 149l154 154zM1032 -672l-153 -151l-153 149l154 154z" />
    <glyph glyph-name="uni06B4.init" unicode="&#x6b4;" horiz-adv-x="1180" 
d="M-23 0v189h586q72 0 119.5 16.5t61.5 45.5q13 29 0.5 71.5t-43.5 94t-76 108.5t-97 114t-107 111.5t-106 101t-93 82t-69 54.5l19 213l915 402l76 -172l-801 -350q30 -30 77 -75.5t102 -101t112 -118t108 -125.5t90.5 -123.5t58.5 -111.5q17 -44 23.5 -82t5.5 -69.5
t-7.5 -56.5t-14.5 -43q-11 -25 -34 -55.5t-64.5 -57t-103.5 -44.5t-152 -18h-586zM199 1434l759 327l42 -90l-812 -352zM635 1770l-137 45l41 136l139 -45zM393 1646l-137 44l42 136l138 -44zM427 1876l-138 45l42 136l139 -45z" />
    <glyph glyph-name="uni06B4.medi" unicode="&#x6b4;" horiz-adv-x="1250" 
d="M1268 0h-15q-89 0 -158.5 17t-126.5 48.5t-105 76t-94 99.5q-2 -5 -4 -9t-4 -9q-28 -55 -78.5 -99t-119.5 -73q-59 -26 -131 -38.5t-150 -12.5h-294v189h294q58 0 108.5 8.5t91 24t69 37.5t42.5 49q24 49 4.5 119t-82.5 155q-89 125 -151 212t-101 142q-46 64 -75 105
l37 140l918 424l78 -173l-819 -375l397 -551q61 -82 109 -141.5t97.5 -98.5t108 -58t139.5 -19h15v-189zM246 1443l759 327l42 -90l-812 -352zM696 1775l-137 45l41 136l139 -45zM454 1651l-137 44l42 136l138 -44zM488 1881l-138 45l42 136l139 -45z" />
    <glyph glyph-name="uni06B4.fina" unicode="&#x6b4;" horiz-adv-x="2193" 
d="M1056 183q114 0 199.5 6.5t145 20t94.5 32.5t48 45q17 33 16.5 69t-13.5 73t-36 75.5t-51 77.5l-316 441l35 164l899 412l77 -172l-806 -370l342 -481q79 -105 137 -178.5t112 -120t111 -67.5t133 -21h21v-189h-21q-86 0 -152.5 17t-121.5 48.5t-103 76.5t-96 100
q-20 -62 -55.5 -104t-83.5 -69.5t-106.5 -42.5t-124.5 -22t-138 -8t-146 -1q-102 0 -194 0.5t-173 4.5t-151 12.5t-130 24.5q-143 39 -215 123q-82 92 -82 244q0 51 7.5 102.5t16.5 94t16.5 70t8.5 29.5l180 -55l-6.5 -23t-14 -58t-14 -77.5t-6.5 -82.5t8.5 -69.5t27 -51
t48.5 -37t74 -27.5q102 -27 253 -31.5t346 -4.5zM1206 1457l759 327l42 -90l-812 -352zM1624 1799l-137 45l41 136l139 -45zM1382 1675l-137 44l42 136l138 -44zM1416 1905l-138 45l42 136l139 -45z" />
    <glyph glyph-name="uni06B5.init" unicode="&#x6b5;" horiz-adv-x="647" 
d="M-18 189h34q92 0 143.5 13.5t79.5 41.5q20 19 29.5 53.5t9.5 91.5v1039h188v-1039q0 -34 -3 -70.5t-13 -73.5t-29 -72.5t-51 -66.5q-29 -27 -62.5 -46.5t-76.5 -33t-96 -20t-119 -6.5h-34v189zM639 2022l-225 -408h-127l-228 408h160l129 -264l133 264h158z" />
    <glyph glyph-name="uni06B5.medi" unicode="&#x6b5;" horiz-adv-x="656" 
d="M-21 189h16q105 0 162.5 19.5t83.5 49t30.5 64.5t4.5 67v1038h188v-1038q0 -35 6.5 -70.5t26 -64.5t54.5 -47t93 -18h16v-189h-16q-77 0 -145.5 28t-129.5 90q-115 -118 -374 -118h-16v189zM653 2013l-225 -408h-127l-228 408h160l129 -264l133 264h158z" />
    <glyph glyph-name="uni06B5.fina" unicode="&#x6b5;" horiz-adv-x="1419" 
d="M583 -552q-134 0 -243.5 58.5t-177.5 164.5q-27 43 -52 113t-29.5 168.5t22 226.5t103.5 288l170 -81q-47 -96 -73.5 -184t-33 -166t6 -144.5t45.5 -119.5q42 -64 110.5 -99.5t151.5 -35.5h71q115 0 187 24t113 68t56 106.5t15 139.5v390v8v1054h186v-1063
q1 -40 14.5 -72t37.5 -55t56 -35.5t71 -12.5h33v-189h-33q-99 0 -179 44v-69q0 -527 -557 -527h-71zM1399 2013l-225 -408h-127l-228 408h160l129 -264l133 264h158z" />
    <glyph glyph-name="uni06B6.init" unicode="&#x6b6;" horiz-adv-x="599" 
d="M-18 189h34q92 0 143.5 13.5t79.5 41.5q20 19 29.5 53.5t9.5 91.5v1039h188v-1039q0 -34 -3 -70.5t-13 -73.5t-29 -72.5t-51 -66.5q-29 -27 -62.5 -46.5t-76.5 -33t-96 -20t-119 -6.5h-34v189zM175 1808l170 172l174 -174l-172 -172z" />
    <glyph glyph-name="uni06B6.medi" unicode="&#x6b6;" horiz-adv-x="655" 
d="M-21 189h16q105 0 162.5 19.5t83.5 49t30.5 64.5t4.5 67v1038h188v-1038q0 -35 6.5 -70.5t26 -64.5t54.5 -47t93 -18h16v-189h-16q-77 0 -145.5 28t-129.5 90q-115 -118 -374 -118h-16v189zM181 1808l170 172l174 -174l-172 -172z" />
    <glyph glyph-name="uni06B6.fina" unicode="&#x6b6;" horiz-adv-x="1413" 
d="M583 -552q-134 0 -243.5 58.5t-177.5 164.5q-27 43 -52 113t-29.5 168.5t22 226.5t103.5 288l170 -81q-47 -96 -73.5 -184t-33 -166t6 -144.5t45.5 -119.5q42 -64 110.5 -99.5t151.5 -35.5h71q115 0 187 24t113 68t56 106.5t15 139.5v390v8v1054h186v-1063
q1 -40 14.5 -72t37.5 -55t56 -35.5t71 -12.5h33v-189h-33q-99 0 -179 44v-69q0 -527 -557 -527h-71zM939 1808l170 172l174 -174l-172 -172z" />
    <glyph glyph-name="uni06B7.init" unicode="&#x6b7;" horiz-adv-x="608" 
d="M-18 189h34q92 0 143.5 13.5t79.5 41.5q20 19 29.5 53.5t9.5 91.5v1039h188v-1039q0 -34 -3 -70.5t-13 -73.5t-29 -72.5t-51 -66.5q-29 -27 -62.5 -46.5t-76.5 -33t-96 -20t-119 -6.5h-34v189zM302 1743l-102 -103l-102 102l102 103zM598 1746l-101 -102l-104 101
l103 103zM445 1944l-95 -94l-94 94l97 95z" />
    <glyph glyph-name="uni06B7.medi" unicode="&#x6b7;" horiz-adv-x="651" 
d="M-21 189h16q105 0 162.5 19.5t83.5 49t30.5 64.5t4.5 67v1038h188v-1038q0 -35 6.5 -70.5t26 -64.5t54.5 -47t93 -18h16v-189h-16q-77 0 -145.5 28t-129.5 90q-115 -118 -374 -118h-16v189zM314 1743l-102 -103l-102 102l102 103zM610 1746l-101 -102l-104 101l103 103z
M457 1944l-95 -94l-94 94l97 95z" />
    <glyph glyph-name="uni06B7.fina" unicode="&#x6b7;" horiz-adv-x="1419" 
d="M583 -552q-134 0 -243.5 58.5t-177.5 164.5q-27 43 -52 113t-29.5 168.5t22 226.5t103.5 288l170 -81q-47 -96 -73.5 -184t-33 -166t6 -144.5t45.5 -119.5q42 -64 110.5 -99.5t151.5 -35.5h71q115 0 187 24t113 68t56 106.5t15 139.5v390v8v1054h186v-1063
q1 -40 14.5 -72t37.5 -55t56 -35.5t71 -12.5h33v-189h-33q-99 0 -179 44v-69q0 -527 -557 -527h-71zM1050 1743l-102 -103l-102 102l102 103zM1346 1746l-101 -102l-104 101l103 103zM1193 1944l-95 -94l-94 94l97 95z" />
    <glyph glyph-name="uni06B8.init" unicode="&#x6b8;" horiz-adv-x="647" 
d="M-18 189h34q92 0 143.5 13.5t79.5 41.5q20 19 29.5 53.5t9.5 91.5v1039h188v-1039q0 -34 -3 -70.5t-13 -73.5t-29 -72.5t-51 -66.5q-29 -27 -62.5 -46.5t-76.5 -33t-96 -20t-119 -6.5h-34v189zM317.866 -721.598l-124.708 123.677l121.244 120.217l122.976 -120.217z
M618.378 -345.38l-140.297 -140.108l-135.101 140.108l136.833 138.379zM286.689 -347.109l-140.297 -140.108l-135.101 140.108l136.833 138.379z" />
    <glyph glyph-name="uni06B8.medi" unicode="&#x6b8;" horiz-adv-x="655" 
d="M-21 189h16q105 0 162.5 19.5t83.5 49t30.5 64.5t4.5 67v1038h188v-1038q0 -35 6.5 -70.5t26 -64.5t54.5 -47t93 -18h16v-189h-16q-77 0 -145.5 28t-129.5 90q-115 -118 -374 -118h-16v189zM317.866 -721.598l-124.708 123.677l121.244 120.217l122.976 -120.217z
M618.378 -345.38l-140.297 -140.108l-135.101 140.108l136.833 138.379zM286.689 -347.109l-140.297 -140.108l-135.101 140.108l136.833 138.379z" />
    <glyph glyph-name="uni06B8.fina" unicode="&#x6b8;" horiz-adv-x="1419" 
d="M583 -552q-134 0 -243.5 58.5t-177.5 164.5q-27 43 -52 113t-29.5 168.5t22 226.5t103.5 288l170 -81q-47 -96 -73.5 -184t-33 -166t6 -144.5t45.5 -119.5q42 -64 110.5 -99.5t151.5 -35.5h71q115 0 187 24t113 68t56 106.5t15 139.5v390v8v1054h186v-1063
q1 -40 14.5 -72t37.5 -55t56 -35.5t71 -12.5h33v-189h-33q-99 0 -179 44v-69q0 -527 -557 -527h-71zM734 -783l102 103l102 -102l-102 -103zM438 -786l101 102l104 -101l-103 -103zM591 -984l95 94l94 -94l-97 -95z" />
    <glyph glyph-name="uni06B9.init" unicode="&#x6b9;" horiz-adv-x="684" 
d="M523 814q2 -6 8 -32t13.5 -64.5t16.5 -85t16 -94t12 -91.5t5 -77q0 -96 -31.5 -165.5t-82 -115t-113.5 -67.5t-127 -22h-255v189h255q15 0 42.5 4.5t55 22.5t48 54t20.5 100q0 22 -3.5 55.5t-9 72t-12.5 79t-14 76.5t-13 64t-10 42zM183 -314l170 172l174 -174l-172 -172
zM188 1227l170 172l174 -174l-172 -172z" />
    <glyph glyph-name="uni06B9.medi" unicode="&#x6b9;" horiz-adv-x="804" 
d="M816 189v-189h-78q-91 0 -160.5 26t-111.5 78q-104 -104 -308 -104h-192v189h192q72 0 114 14.5t63.5 36t28 48t6.5 50.5v338h188v-331q0 -37 11 -63t28.5 -43.5t39 -27.5t41.5 -15t36 -6t24 -1h78zM286 -314l170 172l174 -174l-172 -172zM291 1118l170 172l174 -174
l-172 -172z" />
    <glyph glyph-name="uni06B9.fina" unicode="&#x6b9;" horiz-adv-x="1687" 
d="M682 -554q-155 0 -281 67.5t-204 192.5q-54 85 -77.5 188.5t-16.5 221.5t44 247.5t103 267.5l170 -81q-56 -116 -88.5 -222.5t-40.5 -201.5t8 -176t57 -145q52 -81 136 -125.5t190 -44.5h235q115 0 187.5 24.5t113 68.5t55 106.5t14.5 138.5v392v8v303h189v-311
q1 -40 14.5 -72.5t36.5 -55.5t55.5 -35.5t72.5 -12.5h39v-189h-39q-98 0 -179 43v-70q0 -264 -140 -395.5t-419 -131.5h-235zM682 843l170 172l174 -174l-172 -172zM677 -915l170 172l174 -174l-172 -172z" />
    <glyph glyph-name="uni06BA" unicode="&#x6ba;" horiz-adv-x="1600" arabic-form="isolated" 
d="M682 -554q-155 0 -281 67.5t-204 192.5q-54 85 -77.5 188.5t-16.5 221.5t44 247.5t103 267.5l170 -81q-56 -116 -88.5 -222.5t-40.5 -201.5t8 -176t57 -145q52 -81 136 -125.5t190 -44.5h235q115 0 187.5 24.5t113 68.5t55 106.5t14.5 138.5v703h189v-703
q0 -264 -140 -395.5t-419 -131.5h-235z" />
    <glyph glyph-name="uni06BB.fina" unicode="&#x6bb;" horiz-adv-x="1684" arabic-form="final" 
d="M682 -554q-155 0 -281 67.5t-204 192.5q-54 85 -77.5 188.5t-16.5 221.5t44 247.5t103 267.5l170 -81q-56 -116 -88.5 -222.5t-40.5 -201.5t8 -176t57 -145q52 -81 136 -125.5t190 -44.5h235q115 0 187.5 24.5t113 68.5t55 106.5t14.5 138.5v392v8v303h189v-311
q1 -40 14.5 -72.5t36.5 -55.5t55.5 -35.5t72.5 -12.5h39v-189h-39q-98 0 -179 43v-70q0 -264 -140 -395.5t-419 -131.5h-235zM586 764v85h100l47 73v485h83v-363q38 46 84 77t103 31q33 0 64.5 -12t56.5 -37.5t40.5 -64.5t15.5 -92q0 -51 -17 -85.5t-43 -56t-58.5 -31
t-63.5 -9.5h-412zM998 849q42 0 69 23t27 74q0 58 -23.5 89.5t-67.5 31.5q-32 0 -61 -20t-56 -51.5t-51.5 -69.5t-45.5 -74q-1 -1 -1 -3h210z" />
    <glyph glyph-name="uni06BC.init" unicode="&#x6bc;" horiz-adv-x="679" 
d="M523 814q2 -6 8 -32t13.5 -64.5t16.5 -85t16 -94t12 -91.5t5 -77q0 -96 -31.5 -165.5t-82 -115t-113.5 -67.5t-127 -22h-255v189h255q15 0 42.5 4.5t55 22.5t48 54t20.5 100q0 22 -3.5 55.5t-9 72t-12.5 79t-14 76.5t-13 64t-10 42zM294 -350q-51 0 -92 15t-70.5 42.5
t-45 67.5t-15.5 90q0 51 16 90.5t45 67.5t70 42.5t92 14.5q102 0 166 -59q63 -59 63 -154q0 -100 -63 -158q-64 -59 -166 -59zM294 -247q49 0 81 29t32 83t-32 83.5t-81 29.5q-51 0 -82 -29.5t-31 -83.5q0 -112 113 -112zM188 1227l170 172l174 -174l-172 -172z" />
    <glyph glyph-name="uni06BC.medi" unicode="&#x6bc;" horiz-adv-x="797" 
d="M816 189v-189h-78q-91 0 -160.5 26t-111.5 78q-104 -104 -308 -104h-192v189h192q72 0 114 14.5t63.5 36t28 48t6.5 50.5v338h188v-331q0 -37 11 -63t28.5 -43.5t39 -27.5t41.5 -15t36 -6t24 -1h78zM466 -286q-51 0 -92 15t-70.5 42.5t-45 67.5t-15.5 90q0 51 16 90.5
t45 67.5t70 42.5t92 14.5q102 0 166 -59q63 -59 63 -154q0 -100 -63 -158q-64 -59 -166 -59zM466 -183q49 0 81 29t32 83t-32 83.5t-81 29.5q-51 0 -82 -29.5t-31 -83.5q0 -112 113 -112zM291 1118l170 172l174 -174l-172 -172z" />
    <glyph glyph-name="uni06BC.fina" unicode="&#x6bc;" horiz-adv-x="1680" 
d="M682 -554q-155 0 -281 67.5t-204 192.5q-54 85 -77.5 188.5t-16.5 221.5t44 247.5t103 267.5l170 -81q-56 -116 -88.5 -222.5t-40.5 -201.5t8 -176t57 -145q52 -81 136 -125.5t190 -44.5h235q115 0 187.5 24.5t113 68.5t55 106.5t14.5 138.5v392v8v303h189v-311
q1 -40 14.5 -72.5t36.5 -55.5t55.5 -35.5t72.5 -12.5h39v-189h-39q-98 0 -179 43v-70q0 -264 -140 -395.5t-419 -131.5h-235zM861 -887q-51 0 -92 15t-70.5 42.5t-45 67.5t-15.5 90q0 51 16 90.5t45 67.5t70 42.5t92 14.5q102 0 166 -59q63 -59 63 -154q0 -100 -63 -158
q-64 -59 -166 -59zM861 -784q49 0 81 29t32 83t-32 83.5t-81 29.5q-51 0 -82 -29.5t-31 -83.5q0 -112 113 -112zM691 852l170 172l174 -174l-172 -172z" />
    <glyph glyph-name="uni06BD.fina" unicode="&#x6bd;" horiz-adv-x="1684" 
d="M682 -554q-155 0 -281 67.5t-204 192.5q-54 85 -77.5 188.5t-16.5 221.5t44 247.5t103 267.5l170 -81q-56 -116 -88.5 -222.5t-40.5 -201.5t8 -176t57 -145q52 -81 136 -125.5t190 -44.5h235q115 0 187.5 24.5t113 68.5t55 106.5t14.5 138.5v392v8v303h189v-311
q1 -40 14.5 -72.5t36.5 -55.5t55.5 -35.5t72.5 -12.5h39v-189h-39q-98 0 -179 43v-70q0 -264 -140 -395.5t-419 -131.5h-235zM985 1191l-142 -139l-140 139l144 143zM1034 739l-158 160l156 162l162 -162zM651 741l-158 160l156 162l162 -162z" />
    <glyph glyph-name="uni06BE" unicode="&#x6be;" horiz-adv-x="1651" arabic-form="isolated" 
d="M741 263q75 33 119 91.5t44 142.5q0 50 -19.5 84.5t-47.5 55.5t-58 30.5t-52 9.5q-41 0 -74.5 -12.5t-57.5 -34.5t-37 -52.5t-13 -66.5q0 -43 10.5 -76.5t34 -62.5t60.5 -55t91 -54zM994 1052q110 -115 203 -215q40 -43 80 -86.5t74.5 -83t61 -72t39.5 -52.5
q27 -44 44.5 -85t24 -83t2.5 -86t-19 -95q-16 -58 -50.5 -105.5t-83.5 -81.5t-111 -52.5t-134 -18.5q-68 0 -141 18t-151 56q-22 9 -41 18q-17 8 -34.5 16t-28.5 14q-47 -15 -112.5 -30t-146.5 -22.5t-175.5 -3t-199.5 28.5l34 181q73 -14 129.5 -18.5t100 -4.5t76.5 4t60 7
q-72 63 -105 138.5t-33 172.5q0 76 28 140.5t77.5 111.5t117 73.5t147.5 26.5q60 0 110 -17t91 -45.5t71.5 -66t51.5 -78t31.5 -82t10.5 -77.5q0 -103 -38.5 -185.5t-113.5 -145.5q42 -17 89.5 -28t94.5 -11q61 0 113.5 24.5t84.5 90.5q20 41 10.5 90t-41 103.5t-80.5 114
t-107.5 121.5t-122 124.5t-124.5 124.5z" />
    <glyph glyph-name="uni06BF.init" unicode="&#x6bf;" horiz-adv-x="1424" 
d="M1288 400q-6 -4 -52 -35t-122.5 -75.5t-178.5 -95.5t-219.5 -94t-245.5 -71.5t-256 -28.5h-224v189h224q112 0 226.5 26.5t220.5 66t199 86t163 87.5q-97 39 -193.5 76t-176.5 65.5t-137.5 46.5t-76.5 21q-17 0 -35.5 -3t-36.5 -18t-35 -46.5t-32 -88.5l-183 48
q77 296 324 296q6 0 16 -0.5t29 -5t51 -14t81.5 -26.5t120.5 -43.5t170 -65.5l354 -131zM300 1314l170 172l174 -174l-172 -172zM632 -780l-144 143l140 139l142 -139zM979 -345l-162 -162l-156 162l158 160zM596 -347l-162 -162l-156 162l158 160z" />
    <glyph glyph-name="uni06BF.medi" unicode="&#x6bf;" horiz-adv-x="1528" 
d="M1335 400q-6 -4 -50 -34t-117 -73q11 -37 35.5 -57.5t51.5 -31t51 -13t34 -2.5h210v-189h-210q-73 0 -136.5 21.5t-114.5 63.5q-58 49 -88 118q-77 -38 -165 -74.5t-182.5 -65t-194 -46t-198.5 -17.5h-281v189h281q112 0 226.5 26.5t220.5 66t199 86t163 87.5
q-97 39 -193.5 76t-176.5 65.5t-137.5 46.5t-76.5 21q-17 0 -35.5 -3t-36.5 -18t-35 -46.5t-32 -88.5l-183 48q77 296 324 296q7 0 16.5 -0.5t29 -5t50.5 -14t81 -26.5t121 -43.5t170 -65.5l354 -131zM314 1240l170 172l174 -174l-172 -172zM774 -771l-144 143l140 139
l142 -139zM1121 -336l-162 -162l-156 162l158 160zM738 -338l-162 -162l-156 162l158 160z" />
    <glyph glyph-name="uni06BF.fina" unicode="&#x6bf;" horiz-adv-x="1561" 
d="M1064 474l105 8q0 -87 11 -143.5t32 -89.5t52 -46.5t71 -13.5h253v-189h-253q-63 0 -124.5 21t-110.5 69.5t-79.5 127.5t-30.5 196zM1342 532q-2 -1 -38 -12.5t-113.5 -38t-201 -70t-300.5 -109.5q-111 -41 -188 -77.5t-126.5 -72t-75.5 -72t-36 -77t-7.5 -87.5t9.5 -104
q15 -117 53 -198.5t98 -131.5t141 -72.5t182 -22.5h502v-189h-502q-143 0 -256.5 33t-196.5 104t-135 182.5t-73 269.5q-21 160 5 269.5t96 187t182 132t263 102.5l462 150q-97 39 -194 74t-178.5 61.5t-139.5 43t-77 19.5q-17 0 -35.5 -3t-36.5 -18t-35 -46.5t-32 -88.5
l-183 48q77 296 324 296q7 0 16.5 -0.5t29 -5t50.5 -14t81 -26.5t121 -43.5t170 -65.5l368 -150zM748.927 -494.348l-133.479 132.614l129.771 128.904l131.626 -128.904zM1070.58 -90.9424l-150.164 -150.233l-144.603 150.233l146.456 148.379zM715.557 -92.7969
l-150.164 -150.233l-144.603 150.233l146.456 148.379zM337 1333l170 172l174 -174l-172 -172z" />
    <glyph glyph-name="uni06C0" unicode="&#x6c0;" horiz-adv-x="1023" arabic-form="isolated" 
d="M525 0q-90 0 -165.5 27.5t-131 76t-86.5 115t-31 144.5q0 100 26.5 176.5t67.5 138t90 112.5t94 100l-62 69l140 127q52 -58 107.5 -116.5t108.5 -118t99.5 -119t81.5 -119t55.5 -119t19.5 -117.5q-1 -81 -32.5 -151.5t-91.5 -124.5q-56 -48 -130.5 -74.5t-159.5 -26.5z
M512 755q-38 -43 -76 -85.5t-68 -89.5t-49 -100t-19 -117q0 -45 19.5 -77.5t51 -54t72 -32t82.5 -10.5q51 0 92.5 13.5t71 38.5t45.5 59.5t16 76.5q0 50 -21 98.5t-54.5 95.5t-76.5 93t-86 91zM199 1188l9 127l124 37q-54 43 -74 104q-13 39 -7.5 79t25 74.5t51 60
t69.5 36.5q27 9 54 9.5t52.5 -3t48.5 -11t43 -14.5l-25 -101q-17 4 -36 8t-38 6.5t-36 2t-28 -4.5q-17 -6 -31.5 -16.5t-24 -24t-12.5 -30.5t3 -37t22.5 -36.5t44.5 -25.5t67 -9t92 14l85 25l34 -108z" />
    <glyph glyph-name="uni06C1" unicode="&#x6c1;" horiz-adv-x="1051" arabic-form="isolated" 
d="M525 0q-90 0 -165.5 27.5t-131 76t-86.5 115t-31 144.5q0 100 26.5 176.5t67.5 138t90 112.5t94 100l-62 69l140 127q52 -58 107.5 -116.5t108.5 -118t99.5 -119t81.5 -119t55.5 -119t19.5 -117.5q-1 -81 -32.5 -151.5t-91.5 -124.5q-56 -48 -130.5 -74.5t-159.5 -26.5z
M512 755q-38 -43 -76 -85.5t-68 -89.5t-49 -100t-19 -117q0 -45 19.5 -77.5t51 -54t72 -32t82.5 -10.5q51 0 92.5 13.5t71 38.5t45.5 59.5t16 76.5q0 50 -21 98.5t-54.5 95.5t-76.5 93t-86 91z" />
    <glyph glyph-name="uni06C2.fina" unicode="&#x6c2;" horiz-adv-x="1286" 
d="M1302 0h-58q-29 0 -63.5 3t-72.5 12t-78 24t-80 39q-78 49 -130.5 122t-76.5 168q-17 66 -33 128t-32 125.5t-32.5 131.5t-35.5 146l-120 -25q-105 -27 -143 -94q-29 -49 -31.5 -118t10 -146t34 -156t42.5 -148l28 -92l-182 -51q-7 21 -13 43.5t-14 46.5
q-25 85 -50 179.5t-36.5 188.5t-2.5 183t52 164q81 140 262 182q20 5 55.5 13t70.5 15.5t61.5 12.5t28.5 5l111 -72q22 -96 41.5 -176.5t37.5 -153t36 -141.5t37 -143t58 -118.5t85 -68.5t93 -32t83 -8h58v-189zM150 1146l9 127l124 37q-54 43 -74 104q-13 39 -7.5 79
t25 74.5t51 60t69.5 36.5q27 9 54 9.5t52.5 -3t48.5 -11t43 -14.5l-25 -101q-17 4 -36 8t-38 6.5t-36 2t-28 -4.5q-17 -6 -31.5 -16.5t-24 -24t-12.5 -30.5t3 -37t22.5 -36.5t44.5 -25.5t67 -9t92 14l85 25l34 -108z" />
    <glyph glyph-name="uni06C3.fina" unicode="&#x6c3;" horiz-adv-x="1291" 
d="M1302 0h-58q-29 0 -63.5 3t-72.5 12t-78 24t-80 39q-78 49 -130.5 122t-76.5 168q-17 66 -33 128t-32 125.5t-32.5 131.5t-35.5 146l-120 -25q-105 -27 -143 -94q-29 -49 -31.5 -118t10 -146t34 -156t42.5 -148l28 -92l-182 -51q-7 21 -13 43.5t-14 46.5
q-25 85 -50 179.5t-36.5 188.5t-2.5 183t52 164q81 140 262 182q20 5 55.5 13t70.5 15.5t61.5 12.5t28.5 5l111 -72q22 -96 41.5 -176.5t37.5 -153t36 -141.5t37 -143t58 -118.5t85 -68.5t93 -32t83 -8h58v-189zM668 1215l-158 160l156 162l162 -162zM285 1217l-158 160
l156 162l162 -162z" />
    <glyph glyph-name="uni06C4.fina" unicode="&#x6c4;" horiz-adv-x="1036" 
d="M194 -363q151 0 254 23t163 71q52 42 76.5 107t24.5 162h-184q-70 0 -142 21t-130.5 69t-95.5 125.5t-37 189.5q0 66 11.5 119.5t29 95.5t38.5 73t41 53q55 55 126 85t152 30q71 0 133 -22t111 -66q135 -126 135 -395v-189h150v-189h-150q0 -142 -41.5 -244.5
t-128.5 -171.5q-88 -69 -218.5 -102.5t-317.5 -33.5v189zM521 672q-99 0 -154 -70t-55 -197q0 -129 78 -179q19 -12 39 -19.5t39 -11t34.5 -5t25.5 -1.5h184v189q0 73 -11 123.5t-28 83.5t-38.5 50.5t-42.5 25.5t-40 9.5t-31 1.5zM365.377 -412.026
q-41.3975 0 -74.6777 12.1807q-33.2793 12.1816 -57.2246 34.5137t-36.5273 54.8145q-12.5811 32.4834 -12.5811 73.0869q0 41.416 12.9873 73.4922q12.9873 32.0771 36.5264 54.8154q23.54 22.7383 56.8193 34.5127q33.2803 11.7754 74.6777 11.7754
q82.7939 0 134.743 -47.9121q51.1377 -47.9131 51.1377 -125.06q0 -81.207 -51.1377 -128.308q-51.9492 -47.9121 -134.743 -47.9121zM365.377 -328.383q39.7734 0 65.748 23.5498t25.9746 67.4023q0 43.8516 -25.9746 67.8076t-65.748 23.9561
q-41.3975 0 -66.5605 -23.9561t-25.1631 -67.8076q0 -90.9521 91.7236 -90.9521z" />
    <glyph glyph-name="uni06C5.fina" unicode="&#x6c5;" horiz-adv-x="1032" arabic-form="final" 
d="M247 -103l22 2.5t58 2.5t81 -4.5t91.5 -19t90 -41.5t75.5 -71l-71 -84q-40 37 -92 64q-45 23 -107 39.5t-138 7.5zM194 -363q151 0 254 23t163 71q52 42 76.5 107t24.5 162h-184q-70 0 -142 21t-130.5 69t-95.5 125.5t-37 189.5q0 66 11.5 119.5t29 95.5t38.5 73t41 53
q55 55 126 85t152 30q71 0 133 -22t111 -66q135 -126 135 -395v-189h150v-189h-150q0 -142 -41.5 -244.5t-128.5 -171.5q-88 -69 -218.5 -102.5t-317.5 -33.5v189zM521 672q-99 0 -154 -70t-55 -197q0 -129 78 -179q19 -12 39 -19.5t39 -11t34.5 -5t25.5 -1.5h184v189
q0 73 -11 123.5t-28 83.5t-38.5 50.5t-42.5 25.5t-40 9.5t-31 1.5z" />
    <glyph glyph-name="uni06C6.fina" unicode="&#x6c6;" horiz-adv-x="1032" arabic-form="final" 
d="M194 -363q151 0 254 23t163 71q52 42 76.5 107t24.5 162h-184q-70 0 -142 21t-130.5 69t-95.5 125.5t-37 189.5q0 66 11.5 119.5t29 95.5t38.5 73t41 53q55 55 126 85t152 30q71 0 133 -22t111 -66q135 -126 135 -395v-189h150v-189h-150q0 -142 -41.5 -244.5
t-128.5 -171.5q-88 -69 -218.5 -102.5t-317.5 -33.5v189zM521 672q-99 0 -154 -70t-55 -197q0 -129 78 -179q19 -12 39 -19.5t39 -11t34.5 -5t25.5 -1.5h184v189q0 73 -11 123.5t-28 83.5t-38.5 50.5t-42.5 25.5t-40 9.5t-31 1.5zM823 1473l-225 -408h-127l-228 408h160
l129 -264l133 264h158z" />
    <glyph glyph-name="uni06C7.fina" unicode="&#x6c7;" horiz-adv-x="1036" arabic-form="final" 
d="M194 -363q151 0 254 23t163 71q52 42 76.5 107t24.5 162h-184q-70 0 -142 21t-130.5 69t-95.5 125.5t-37 189.5q0 66 11.5 119.5t29 95.5t38.5 73t41 53q55 55 126 85t152 30q71 0 133 -22t111 -66q135 -126 135 -395v-189h150v-189h-150q0 -142 -41.5 -244.5
t-128.5 -171.5q-88 -69 -218.5 -102.5t-317.5 -33.5v189zM521 672q-99 0 -154 -70t-55 -197q0 -129 78 -179q19 -12 39 -19.5t39 -11t34.5 -5t25.5 -1.5h184v189q0 73 -11 123.5t-28 83.5t-38.5 50.5t-42.5 25.5t-40 9.5t-31 1.5zM299 1109q24 7 61.5 18t79.5 27.5t83.5 38
t73.5 50.5q-22 11 -37.5 18t-31.5 15q-45 22 -69 50.5t-33.5 58.5t-6.5 58.5t12 48.5q15 31 42 57t59 41.5t67.5 18t67.5 -13.5q65 -32 86 -104q7 -27 11 -56t-1 -62.5t-21 -72.5t-48 -84q-23 -33 -57 -59.5t-72.5 -48t-78 -37.5t-72.5 -27.5t-57 -18t-32 -8.5zM607 1515
q-12 0 -26.5 -4t-28.5 -11.5t-25.5 -18t-18.5 -23.5q-1 0 -2.5 -9.5t3 -24t18 -31.5t42.5 -32q15 -8 33.5 -16.5t52.5 -24.5q15 29 18 71.5t-7 77.5q-8 19 -23 32.5t-36 13.5z" />
    <glyph glyph-name="uni06C8.fina" unicode="&#x6c8;" horiz-adv-x="1040" arabic-form="final" 
d="M194 -363q151 0 254 23t163 71q52 42 76.5 107t24.5 162h-184q-70 0 -142 21t-130.5 69t-95.5 125.5t-37 189.5q0 66 11.5 119.5t29 95.5t38.5 73t41 53q55 55 126 85t152 30q71 0 133 -22t111 -66q135 -126 135 -395v-189h150v-189h-150q0 -142 -41.5 -244.5
t-128.5 -171.5q-88 -69 -218.5 -102.5t-317.5 -33.5v189zM521 672q-99 0 -154 -70t-55 -197q0 -129 78 -179q19 -12 39 -19.5t39 -11t34.5 -5t25.5 -1.5h184v189q0 73 -11 123.5t-28 83.5t-38.5 50.5t-42.5 25.5t-40 9.5t-31 1.5zM476 1473h116v-397h-116v397z" />
    <glyph glyph-name="uni06C9.fina" unicode="&#x6c9;" horiz-adv-x="1040" arabic-form="final" 
d="M194 -363q151 0 254 23t163 71q52 42 76.5 107t24.5 162h-184q-70 0 -142 21t-130.5 69t-95.5 125.5t-37 189.5q0 66 11.5 119.5t29 95.5t38.5 73t41 53q55 55 126 85t152 30q71 0 133 -22t111 -66q135 -126 135 -395v-189h150v-189h-150q0 -142 -41.5 -244.5
t-128.5 -171.5q-88 -69 -218.5 -102.5t-317.5 -33.5v189zM521 672q-99 0 -154 -70t-55 -197q0 -129 78 -179q19 -12 39 -19.5t39 -11t34.5 -5t25.5 -1.5h184v189q0 73 -11 123.5t-28 83.5t-38.5 50.5t-42.5 25.5t-40 9.5t-31 1.5zM263 1063l225 408h86l227 -408h-139
l-129 264l-133 -264h-137z" />
    <glyph glyph-name="uni06CA.fina" unicode="&#x6ca;" horiz-adv-x="1036" 
d="M194 -363q151 0 254 23t163 71q52 42 76.5 107t24.5 162h-184q-70 0 -142 21t-130.5 69t-95.5 125.5t-37 189.5q0 66 11.5 119.5t29 95.5t38.5 73t41 53q55 55 126 85t152 30q71 0 133 -22t111 -66q135 -126 135 -395v-189h150v-189h-150q0 -142 -41.5 -244.5
t-128.5 -171.5q-88 -69 -218.5 -102.5t-317.5 -33.5v189zM521 672q-99 0 -154 -70t-55 -197q0 -129 78 -179q19 -12 39 -19.5t39 -11t34.5 -5t25.5 -1.5h184v189q0 73 -11 123.5t-28 83.5t-38.5 50.5t-42.5 25.5t-40 9.5t-31 1.5zM722 1122l-158 160l156 162l162 -162z
M339 1124l-158 160l156 162l162 -162z" />
    <glyph glyph-name="uni06CB.fina" unicode="&#x6cb;" horiz-adv-x="1040" arabic-form="final" 
d="M194 -363q151 0 254 23t163 71q52 42 76.5 107t24.5 162h-184q-70 0 -142 21t-130.5 69t-95.5 125.5t-37 189.5q0 66 11.5 119.5t29 95.5t38.5 73t41 53q55 55 126 85t152 30q71 0 133 -22t111 -66q135 -126 135 -395v-189h150v-189h-150q0 -142 -41.5 -244.5
t-128.5 -171.5q-88 -69 -218.5 -102.5t-317.5 -33.5v189zM521 672q-99 0 -154 -70t-55 -197q0 -129 78 -179q19 -12 39 -19.5t39 -11t34.5 -5t25.5 -1.5h184v189q0 73 -11 123.5t-28 83.5t-38.5 50.5t-42.5 25.5t-40 9.5t-31 1.5zM676 1490l-142 -139l-140 139l144 143z
M725 1038l-158 160l156 162l162 -162zM342 1040l-158 160l156 162l162 -162z" />
    <glyph glyph-name="uni06CC" unicode="&#x6cc;" horiz-adv-x="1689" arabic-form="isolated" 
d="M933 -361q100 0 173.5 17.5t121.5 55.5t71 99t23 148q-96 25 -188 50q-39 10 -82 21.5t-85.5 23t-83 21.5t-74.5 19q-47 114 -44 223.5t44 204.5t116 170.5t173 120.5t214 54.5t240 -26.5l-47 -181q-68 21 -138 20.5t-134.5 -20t-119.5 -56.5t-93.5 -88.5t-56 -116
t-7.5 -138.5l383 -95q80 -22 120 -72t40 -122q0 -131 -31 -229.5t-99 -163.5t-175.5 -98t-260.5 -33h-221q-76 0 -147 19t-134 53t-116 82t-93 106q-47 76 -71 167t-24 192q0 125 39.5 269.5t115.5 305.5q45 -21 84 -40.5t82 -40.5q-132 -282 -132 -489q0 -74 18 -141
t50 -121q51 -80 138 -125.5t190 -45.5h221v0z" />
    <glyph glyph-name="uni06CD.fina" unicode="&#x6cd;" horiz-adv-x="2056" 
d="M692 560l-599 -219l-40 128l554 237zM1794 0q42 -82 45.5 -155t-23.5 -134t-82 -110t-130 -82.5t-167 -52t-194 -18.5h-285q-158 0 -284 69t-206 191q-54 86 -77.5 190.5t-16.5 223t44.5 249.5t105.5 271l168 -82q-112 -236 -127.5 -427.5t65.5 -322.5q51 -83 136.5 -127
t191.5 -44h285q56 0 110 8.5t101 23.5t85 35.5t63.5 45.5t35.5 53.5t1 58.5q-12 39 -56 65.5t-106 42t-134 22t-139 6.5l7 189h862v-189h-279z" />
    <glyph glyph-name="uni06CE.init" unicode="&#x6ce;" horiz-adv-x="856" 
d="M675 814q2 -6 8 -32t13.5 -64.5t16.5 -85t16 -94t12 -91.5t5 -77q0 -96 -31.5 -165.5t-82 -115t-113.5 -67.5t-127 -22h-414v189h414q15 0 42.5 4.5t55 22.5t48 54t20.5 100q0 22 -3.5 55.5t-9 72t-12.5 79t-14 76.5t-13 64t-10 42zM751 -334l-162 -162l-156 162l158 160
zM368 -336l-162 -162l-156 162l158 160zM660 1437l-225 -408h-127l-228 408h160l129 -264l133 264h158z" />
    <glyph glyph-name="uni06CE.medi" unicode="&#x6ce;" horiz-adv-x="1052" 
d="M1062 189v-189h-165q-91 0 -160.5 26t-111.5 78q-104 -104 -308 -104h-330v189h330q72 0 114 14.5t63.5 36t28 48t6.5 50.5v338h188v-331q0 -37 11.5 -63t28.5 -43.5t38.5 -27.5t41.5 -15t36 -6t24 -1h165zM990 -326l-162 -162l-156 162l158 160zM607 -328l-162 -162
l-156 162l158 160zM933 1269l-225 -408h-127l-228 408h160l129 -264l133 264h158z" />
    <glyph glyph-name="uni06CE.fina" unicode="&#x6ce;" horiz-adv-x="1776" 
d="M1515 0q42 -82 45.5 -155t-23.5 -134t-82 -110t-130 -82.5t-167 -52t-194 -18.5h-285q-158 0 -284 69t-206 191q-54 86 -77.5 190.5t-16.5 223t44.5 249.5t105.5 271l168 -82q-112 -236 -127.5 -427.5t65.5 -322.5q51 -83 136.5 -127t191.5 -44h285q56 0 110 8.5
t101 23.5t85 35.5t63.5 45.5t35.5 53.5t1 58.5q-12 39 -56 65.5t-106 42t-134 22t-139 6.5l7 189h862v-189h-279zM1233 822l-225 -408h-127l-228 408h160l129 -264l133 264h158z" />
    <glyph glyph-name="uni06CF.fina" unicode="&#x6cf;" horiz-adv-x="1036" 
d="M194 -363q151 0 254 23t163 71q52 42 76.5 107t24.5 162h-184q-70 0 -142 21t-130.5 69t-95.5 125.5t-37 189.5q0 66 11.5 119.5t29 95.5t38.5 73t41 53q55 55 126 85t152 30q71 0 133 -22t111 -66q135 -126 135 -395v-189h150v-189h-150q0 -142 -41.5 -244.5
t-128.5 -171.5q-88 -69 -218.5 -102.5t-317.5 -33.5v189zM521 672q-99 0 -154 -70t-55 -197q0 -129 78 -179q19 -12 39 -19.5t39 -11t34.5 -5t25.5 -1.5h184v189q0 73 -11 123.5t-28 83.5t-38.5 50.5t-42.5 25.5t-40 9.5t-31 1.5zM352 1279l170 172l174 -174l-172 -172z" />
    <glyph glyph-name="uni06D0.fina" unicode="&#x6d0;" horiz-adv-x="1776" arabic-form="final" 
d="M1515 0q42 -82 45.5 -155t-23.5 -134t-82 -110t-130 -82.5t-167 -52t-194 -18.5h-285q-158 0 -284 69t-206 191q-54 86 -77.5 190.5t-16.5 223t44.5 249.5t105.5 271l168 -82q-112 -236 -127.5 -427.5t65.5 -322.5q51 -83 136.5 -127t191.5 -44h285q56 0 110 8.5
t101 23.5t85 35.5t63.5 45.5t35.5 53.5t1 58.5q-12 39 -56 65.5t-106 42t-134 22t-139 6.5l7 189h862v-189h-279zM940 -766l-104 -103l-104 102l105 104zM939 -1044l-104 -103l-104 101l104 105z" />
    <glyph glyph-name="uni06D1.fina" unicode="&#x6d1;" horiz-adv-x="1780" 
d="M1515 0q42 -82 45.5 -155t-23.5 -134t-82 -110t-130 -82.5t-167 -52t-194 -18.5h-285q-158 0 -284 69t-206 191q-54 86 -77.5 190.5t-16.5 223t44.5 249.5t105.5 271l168 -82q-112 -236 -127.5 -427.5t65.5 -322.5q51 -83 136.5 -127t191.5 -44h285q56 0 110 8.5
t101 23.5t85 35.5t63.5 45.5t35.5 53.5t1 58.5q-12 39 -56 65.5t-106 42t-134 22t-139 6.5l7 189h862v-189h-279zM912 -844l102 103l102 -102l-102 -103zM616 -847l101 102l104 -101l-103 -103zM769 -1045l95 94l94 -94l-97 -95z" />
    <glyph glyph-name="uni06D2" unicode="&#x6d2;" horiz-adv-x="1651" arabic-form="isolated" 
d="M1634 -364v-188h-1145q-84 0 -156 26.5t-125 76t-83 120t-30 157.5q0 76 32.5 142t87.5 115t126 76.5t148 27.5h403v-189h-395q-43 0 -83.5 -13.5t-72 -38t-50.5 -58.5t-19 -74t19 -73t49.5 -57t69.5 -37t79 -13h1145z" />
    <glyph glyph-name="uni06D3" unicode="&#x6d3;" horiz-adv-x="1647" arabic-form="isolated" 
d="M1634 -364v-188h-1145q-84 0 -156 26.5t-125 76t-83 120t-30 157.5q0 76 32.5 142t87.5 115t126 76.5t148 27.5h403v-189h-395q-43 0 -83.5 -13.5t-72 -38t-50.5 -58.5t-19 -74t19 -73t49.5 -57t69.5 -37t79 -13h1145zM183 322l9 127l124 37q-54 43 -74 104
q-13 39 -7.5 79t25 74.5t51 60t69.5 36.5q27 9 54 9.5t52.5 -3t48.5 -11t43 -14.5l-25 -101q-17 4 -36 8t-38 6.5t-36 2t-28 -4.5q-17 -6 -31.5 -16.5t-24 -24t-12.5 -30.5t3 -37t22.5 -36.5t44.5 -25.5t67 -9t92 14l85 25l34 -108z" />
    <glyph glyph-name="uni06EE.fina" unicode="&#x6ee;" horiz-adv-x="1182" 
d="M1265 189v-189h-37q-149 0 -275 124q-75 -101 -263 -128q-35 -5 -74 -8t-81 -3q-51 0 -103 4.5t-101.5 14t-95.5 25t-83 36.5l-82 48l94 165l83 -48q35 -20 85.5 -32.5t107.5 -18t115 -4t108 8.5q58 9 95.5 25.5t47.5 37.5q14 16 4.5 48t-33.5 69l-375 571l159 104
l388 -592q30 -43 60.5 -88.5t64.5 -83t71.5 -62t82.5 -24.5h37zM225 1180l225 408h86l227 -408h-139l-129 264l-133 -264h-137z" />
    <glyph glyph-name="uni06EF.fina" unicode="&#x6ef;" horiz-adv-x="844" 
d="M857 0h-43q-96 0 -177 38q0 -140 -39 -250t-114 -186.5t-184.5 -116.5t-251.5 -40h-138v189h138q103 0 178.5 24.5t125 75.5t73 130t23.5 188v624h189v-331q0 -56 23.5 -87.5t54.5 -46.5t59.5 -18.5t39.5 -3.5h43v-189zM265 931l225 408h86l227 -408h-139l-129 264
l-133 -264h-137z" />
    <glyph glyph-name="uni06FA.init" unicode="&#x6fa;" horiz-adv-x="1744" 
d="M760 2q-94 0 -167 27.5t-123 79.5q-52 -56 -121 -82.5t-139 -26.5h-220v189h220q15 0 43 4.5t55 23t47.5 55.5t20.5 101v4v299h189v-299q0 -97 45.5 -142t149.5 -45q15 0 42.5 5.5t55 24.5t48 56t20.5 101v299h188v-299q0 -97 47 -143t151 -46q16 0 43 6.5t53.5 26.5
t45.5 57t19 99q0 22 -3.5 55t-9 71t-12.5 77.5t-14 74t-13 62t-10 40.5l179 57q2 -6 8 -31.5t14 -63t16.5 -83.5t16 -92.5t12.5 -90t5 -76.5q0 -95 -31 -165.5t-80.5 -117t-112.5 -70t-126 -24.5q-96 0 -169.5 28.5t-124.5 82.5q-52 -55 -120.5 -82t-137.5 -27zM1145 1362
l-142 -139l-140 139l144 143zM1194 910l-158 160l156 162l162 -162zM811 912l-158 160l156 162l162 -162zM830 -352l170 172l174 -174l-172 -172z" />
    <glyph glyph-name="uni06FA.medi" unicode="&#x6fa;" horiz-adv-x="1776" 
d="M1730 0q-96 0 -170 27.5t-124 82.5h-1l-15 -16q-49 -47 -111 -70.5t-133 -23.5q-187 0 -290 108q-50 -53 -115 -79.5t-132 -28.5h-13q-177 3 -276 104q-6 -8 -14 -14q-101 -90 -285 -90h-68v189h68q64 0 103.5 12t61.5 35.5t29.5 57t7.5 76.5v305h189v-300q0 -97 47 -141
t147 -45q18 1 44.5 7t51 25t42.5 54.5t18 94.5v305h188v-300q0 -97 46.5 -141.5t149.5 -44.5q29 0 58 9t52 30t38 54.5t17 82.5v310h189v-310q2 -92 51 -134t149 -42h61v-189h-61v0zM710 -348l170 172l174 -174l-172 -172zM1029 1342l-142 -139l-140 139l144 143zM1078 890
l-158 160l156 162l162 -162zM695 892l-158 160l156 162l162 -162z" />
    <glyph glyph-name="uni06FA.fina" unicode="&#x6fa;" horiz-adv-x="2920" 
d="M2862 0q-99 0 -174.5 29t-125.5 84l-24 -23q-50 -42 -115 -66t-133 -24q-98 0 -172 29t-124 84l-24 -23q-50 -42 -115 -66t-133 -24q-125 0 -216 56v-84q0 -262 -140 -393t-419 -131h-235q-155 0 -281 67t-204 191q-54 85 -77.5 189t-16.5 223t44 250t103 270l170 -83
q-56 -116 -88.5 -223t-40.5 -202.5t8 -177t57 -145.5q52 -81 136 -125.5t190 -44.5h235q115 0 187.5 24t113 68t55 105.5t14.5 137.5v703h189v-194q0 -96 18.5 -153.5t49 -88.5t69 -41t79.5 -10q25 0 57 9t60 30.5t47.5 57.5t19.5 90v300h188v-310q2 -91 48.5 -134
t149.5 -43q25 0 56.5 9t59.5 30.5t47 57.5t19 90v300h188v-310q2 -91 49.5 -133.5t150.5 -42.5h69v-189h-69v0zM2129 1306l-142 -139l-140 139l144 143zM2178 854l-158 160l156 162l162 -162zM1795 856l-158 160l156 162l162 -162zM1816 -368l170 172l174 -174l-172 -172z
" />
    <glyph glyph-name="uni06FB.init" unicode="&#x6fb;" horiz-adv-x="1797" 
d="M-11 0v189h163q70 0 112 14t64 35.5t29 47.5t7 51v338h188v-330q0 -56 23.5 -87t53.5 -46q12 19 23.5 38.5t23.5 39.5q39 64 81.5 130.5t89.5 130t98.5 119.5t109.5 97.5t123 66t138 24.5t143.5 -26.5t125.5 -82t88.5 -141.5t33.5 -205q0 -111 -36.5 -188t-94.5 -125
t-130 -69t-142 -21h-572q-72 0 -136 21.5t-113 61.5q-12 9 -23 20q-52 -51 -126.5 -76t-174.5 -27h-170zM1304 189q49 0 89 13.5t68.5 40.5t44 67t15.5 93q0 128 -55 197.5t-150 69.5q-70 0 -135.5 -45t-126 -115t-115.5 -155t-104 -166h469zM1121 -369l170 172l174 -174
l-172 -172zM1122 1216l170 172l174 -174l-172 -172z" />
    <glyph glyph-name="uni06FB.medi" unicode="&#x6fb;" horiz-adv-x="1852" 
d="M-11 0v189h163q70 0 112 14t64 35.5t29 47.5t7 51v339h188v-331q0 -56 23.5 -87t53.5 -46q12 19 23.5 38.5t23.5 39.5q39 64 81.5 130.5t89.5 130t98.5 119.5t109.5 97.5t123 66t138 24.5t143.5 -26.5t125.5 -82t88.5 -141.5t33.5 -205q0 -66 -13.5 -119t-36.5 -95h206
v-189h-1131q-72 0 -136 21.5t-113 61.5q-12 9 -23 20q-52 -51 -126.5 -76t-174.5 -27h-170zM1315 189q23 1 58.5 8t68.5 28q38 26 58.5 69.5t20.5 108.5q0 128 -55 197.5t-150 69.5q-47 0 -91 -20.5t-86.5 -55.5t-82.5 -82t-77.5 -100t-73 -109.5t-68.5 -109.5l-2 -4h480z
M1114 -369l170 172l174 -174l-172 -172zM1115 1216l170 172l174 -174l-172 -172z" />
    <glyph glyph-name="uni06FB.fina" unicode="&#x6fb;" horiz-adv-x="2812" 
d="M720 -550q-156 0 -282.5 67.5t-204.5 192.5q-54 85 -77.5 188.5t-16.5 221.5t43.5 247.5t102.5 267.5l171 -81q-112 -232 -128 -423.5t66 -321.5q50 -81 135 -125.5t191 -44.5h235q115 0 186.5 24.5t112 68.5t55 106.5t14.5 138.5v357v342h188v-334q0 -54 23 -85t53 -46
q12 19 23.5 39t25.5 40q38 63 80.5 130t89 130t98 119.5t109.5 98.5t122.5 66.5t137.5 24.5t143.5 -27t126 -83.5t89.5 -142.5t34 -204q0 -66 -13.5 -118.5t-36.5 -94.5h208v-189h-1133q-48 0 -94 10t-86 29v-62q0 -527 -556 -527h-235zM2274 189q96 5 149.5 58t53.5 155
q0 127 -53.5 197.5t-150.5 70.5q-46 0 -90.5 -21t-86.5 -56.5t-82 -83t-78 -101t-73 -110t-68 -109.5h479zM2099 -369l170 172l174 -174l-172 -172zM2100 1216l170 172l174 -174l-172 -172z" />
    <glyph glyph-name="uni06FC.init" unicode="&#x6fc;" horiz-adv-x="1089" 
d="M-11 0v189h332q-37 38 -59.5 77t-34.5 75t-16 67.5t-4 55.5q0 82 33 154.5t88.5 125.5t129 84t154.5 31q47 0 90 -10.5t87 -30t92.5 -48t107.5 -63.5l-94 -162q-35 21 -71.5 43.5t-73 40.5t-72 29.5t-66.5 11.5q-39 0 -77.5 -14t-70 -40.5t-51 -65t-19.5 -86.5
q0 -54 21.5 -95.5t58.5 -72t86.5 -51t106 -33t116 -18t117.5 -5.5h126v-189h-1037zM429 1282l170 172l174 -174l-172 -172zM425 -339l170 172l174 -174l-172 -172z" />
    <glyph glyph-name="uni06FC.medi" unicode="&#x6fc;" horiz-adv-x="1256" 
d="M905 0q-17 0 -39 4.5t-52 17.5t-69 37t-91 63q-116 -63 -271 -92.5t-346 -29.5h-58v189h58q144 0 258 16.5t193 47.5q-52 44 -103.5 91t-94.5 88.5t-74.5 72t-42.5 42.5v40q0 19 2 41.5t8 46.5t18 48.5t32 47.5q76 85 242 85h331q83 0 150 -40.5t98 -111.5
q23 -46 22.5 -90.5t-17 -87t-45 -82t-62.5 -76t-69.5 -69.5t-65.5 -62q22 -15 38 -24.5t26.5 -14.5t16 -6.5t7.5 -2.5h366v-189h-366zM364 623q20 -19 56 -52.5t78.5 -72.5t86 -78t78.5 -68q54 43 103.5 91t99.5 111q11 14 18.5 32.5t-2.5 39.5q-8 15 -26 28t-50 13h-331
q-29 0 -47.5 -2.5t-30 -6.5t-17 -7.5t-7.5 -6.5q-3 -2 -5 -7.5t-4 -13.5zM486 -330l170 172l174 -174l-172 -172zM481 1316l170 172l174 -174l-172 -172z" />
    <glyph glyph-name="uni06FC.fina" unicode="&#x6fc;" horiz-adv-x="1356" 
d="M1182 -761h-464q-43 0 -94.5 4t-106.5 15t-110.5 31t-107.5 53q-111 68 -167 175.5t-56 248.5q0 95 45 181.5t137 170.5q62 55 135.5 104t151.5 96q-50 49 -94.5 95t-79 82.5t-55 59t-22.5 25.5l-25 62q0 19 2 42t8 47t18 48t32 47q40 44 99.5 64.5t144.5 20.5h329
q83 0 148.5 -40t97.5 -109q31 -68 19.5 -139.5t-63.5 -134.5q-48 -57 -111.5 -106t-134.5 -94q37 -31 63 -50t43 -29.5t26.5 -14.5t12.5 -5h374v-189h-376q-20 0 -46 6.5t-62.5 26t-86.5 56t-118 95.5q-80 -47 -156 -95.5t-135 -100t-95.5 -107t-36.5 -115.5
q0 -74 22 -127.5t58 -91t83.5 -61t97.5 -36.5t100 -17.5t92 -4.5h464v-189zM460 677q15 -17 38.5 -42.5t52.5 -55.5t62 -64t68 -68l32 -28q75 45 139.5 92.5t106.5 98.5q33 36 19 73q-9 20 -29.5 30t-46.5 10h-329q-29 0 -48.5 -2.5t-31 -6.5t-17 -7.5t-7.5 -4.5
q-7 -11 -9 -25zM566 -249l170 172l174 -174l-172 -172zM565 1353l170 172l174 -174l-172 -172z" />
    <glyph glyph-name="uni06FF.init" unicode="&#x6ff;" horiz-adv-x="1496" 
d="M625 258q37 16 68.5 40t55 54.5t36.5 66.5t13 78q0 50 -21 84.5t-50 56t-60.5 31t-53.5 9.5q-41 0 -75.5 -12.5t-60 -34.5t-40 -53t-14.5 -67q0 -43 11.5 -77.5t36 -64t62.5 -56.5t92 -55zM880 1052q110 -115 203 -215q40 -43 80 -86.5t74.5 -83t61 -72t39.5 -52.5
q27 -44 44.5 -85t24 -83t2.5 -86t-19 -95q-16 -58 -50.5 -105.5t-83.5 -81.5t-111 -52.5t-134 -18.5q-68 0 -141 18t-151 56q-22 9 -41 18q-17 8 -34.5 16t-28.5 14q-94 -29 -220 -43.5t-272 -14.5h-147v189h147q65 0 134.5 2t123.5 9q-72 63 -105 138.5t-33 172.5
q0 76 28 140.5t77.5 111.5t117 73.5t147.5 26.5q60 0 110 -17t91 -45.5t71.5 -66t51.5 -78t31.5 -82t10.5 -77.5q0 -103 -38.5 -185.5t-113.5 -145.5q42 -17 89.5 -28t94.5 -11q30 0 59.5 4t56 16t48.5 32.5t38 53.5q20 41 10 90.5t-42 105.5t-81 116.5t-108 123.5t-123 126
t-125 125zM588 1263l225 408h86l227 -408h-139l-129 264l-133 -264h-137z" />
    <glyph glyph-name="uni06FF.medi" unicode="&#x6ff;" horiz-adv-x="1264" 
d="M403 223q33 5 65.5 13t63.5 17q99 30 153 65.5t79 68.5t29 60.5t4 42.5q0 92 -43 133.5t-137 41.5q-36 0 -71.5 -15t-64.5 -62t-50 -134t-28 -231zM617 853q86 0 154.5 -24.5t116 -71.5t72.5 -114.5t25 -152.5q0 -51 -16 -108.5t-60 -113.5t-122 -106.5t-202 -87.5
q-88 -29 -179 -42q13 -65 47.5 -124.5t83.5 -110t108.5 -89.5t123.5 -63q-24 27 -36.5 64t-16.5 77.5t1 81.5t17 74q22 56 58 101.5t83 78t102.5 50t115.5 17.5h184v-189h-184q-63 0 -111 -33.5t-70 -90.5q-26 -68 -2 -139t91 -130l-62 -166q-97 0 -185 22.5t-164 62
t-138.5 93.5t-110.5 117t-79 132.5t-43 140.5q-64 -5 -122.5 -7t-109.5 -2v189q42 0 100.5 2t124.5 7q5 128 20 223t42 170q30 81 71 132t87.5 80t94.5 39.5t90 10.5zM356 1119l225 408h86l227 -408h-139l-129 264l-133 -264h-137z" />
    <glyph glyph-name="uni06FF.fina" unicode="&#x6ff;" horiz-adv-x="1748" 
d="M1004 1117q110 -115 203 -215q40 -43 80 -86.5t74.5 -83t61 -72t39.5 -52.5q27 -44 44.5 -85t24 -83t2.5 -86t-19 -95q-11 -38 -28 -70h279v-189h-624v1h-6q-33 0 -79.5 6t-95.5 16.5t-96.5 26t-83.5 34.5q-47 -15 -116 -29.5t-148 -26.5t-161.5 -19.5t-154.5 -7.5
l38 189l308 36q-42 26 -75 65.5t-56 87t-35.5 98.5t-12.5 99q0 76 28 140.5t77.5 111.5t117 73.5t147.5 26.5q60 0 110 -17t91 -45.5t71.5 -66t51.5 -78t31.5 -82t10.5 -77.5q0 -103 -38.5 -185.5t-113.5 -145.5q42 -17 89.5 -28t94.5 -11q61 0 113.5 24.5t84.5 90.5
q20 41 10.5 90t-41 103.5t-80.5 114t-107.5 121.5t-122 124.5t-124.5 124.5zM751 328q75 33 119 91.5t44 142.5q0 50 -19.5 84.5t-47.5 55.5t-58 30.5t-52 9.5q-41 0 -74.5 -12.5t-57.5 -34.5t-37 -52.5t-13 -66.5q0 -43 10.5 -76.5t34 -62.5t60.5 -55t91 -54zM752 1263
l225 408h86l227 -408h-139l-129 264l-133 -264h-137z" />
    <glyph glyph-name="uniFB51" unicode="&#x671;" horiz-adv-x="647" arabic-form="final" 
d="M666 0q-95 1 -163.5 14.5t-116 39t-76 64t-44.5 90t-21 115.5t-5 142v809h189v-809q0 -87 5.5 -141t29 -83.5t71 -40t131.5 -11.5v-189zM-14 1433l19 85h129l47 73l83 122q38 46 84 77t103 31q33 0 64.5 -12t56.5 -37.5t40.5 -64.5t15.5 -92q0 -51 -17 -85.5t-43 -56
t-58.5 -31t-63.5 -9.5h-460zM446 1518q42 0 69 23t27 74q0 58 -23.5 89.5t-67.5 31.5q-32 0 -61 -20t-56 -51.5t-51.5 -69.5t-45.5 -74q-1 -1 -1 -3h210z" />
    <glyph glyph-name="uniFB57" unicode="&#x67e;" horiz-adv-x="2243" arabic-form="final" 
d="M2255 188v-188h-46q-79 0 -153 30t-128 89q-46 -46 -116 -71q-52 -19 -121 -29t-158.5 -14.5t-202.5 -5.5t-253 -1q-102 0 -194 0.5t-173 4.5t-151 12.5t-130 24.5q-143 39 -215 123q-82 92 -82 244q0 51 7.5 102.5t16.5 94t16.5 70t8.5 29.5l180 -55l-6.5 -23t-14 -58
t-14 -77.5t-6.5 -82.5t8.5 -69.5t27 -51t48.5 -37t74 -27.5q102 -27 253 -31.5t346 -4.5q162 0 281.5 1t203.5 7.5t137.5 19.5t83.5 37t41 61t11 90v274h189v-311q0 -46 16.5 -79.5t42.5 -55t59.5 -32t66.5 -10.5h46zM1082 -786l-144 143l140 139l142 -139zM1429 -351
l-162 -162l-156 162l158 160zM1046 -353l-162 -162l-156 162l158 160z" />
    <glyph glyph-name="uniFB58" unicode="&#x67e;" horiz-adv-x="876" arabic-form="initial" 
d="M675 814q2 -6 8 -32t13.5 -64.5t16.5 -85t16 -94t12 -91.5t5 -77q0 -96 -31.5 -165.5t-82 -115t-113.5 -67.5t-127 -22h-414v189h414q15 0 42.5 4.5t55 22.5t48 54t20.5 100q0 22 -3.5 55.5t-9 72t-12.5 79t-14 76.5t-13 64t-10 42zM427 -789l-144 143l140 139l142 -139z
M774 -354l-162 -162l-156 162l158 160zM391 -356l-162 -162l-156 162l158 160z" />
    <glyph glyph-name="uniFB59" unicode="&#x67e;" horiz-adv-x="1049" arabic-form="medial" 
d="M1062 189v-189h-165q-91 0 -160.5 26t-111.5 78q-104 -104 -308 -104h-330v189h330q72 0 114 14.5t63.5 36t28 48t6.5 50.5v338h188v-331q0 -37 11.5 -63t28.5 -43.5t38.5 -27.5t41.5 -15t36 -6t24 -1h165zM486 -784l-144 143l140 139l142 -139zM833 -349l-162 -162
l-156 162l158 160zM450 -351l-162 -162l-156 162l158 160z" />
    <glyph glyph-name="uniFB67" unicode="&#x679;" horiz-adv-x="2243" arabic-form="final" 
d="M2255 188v-188h-46q-79 0 -153 30t-128 89q-46 -46 -116 -71q-52 -19 -121 -29t-158.5 -14.5t-202.5 -5.5t-253 -1q-102 0 -194 0.5t-173 4.5t-151 12.5t-130 24.5q-143 39 -215 123q-82 92 -82 244q0 51 7.5 102.5t16.5 94t16.5 70t8.5 29.5l180 -55l-6.5 -23t-14 -58
t-14 -77.5t-6.5 -82.5t8.5 -69.5t27 -51t48.5 -37t74 -27.5q102 -27 253 -31.5t346 -4.5q162 0 281.5 1t203.5 7.5t137.5 19.5t83.5 37t41 61t11 90v274h189v-311q0 -46 16.5 -79.5t42.5 -55t59.5 -32t66.5 -10.5h46zM830 680v85h100l47 73v485h83v-363q38 46 84 77t103 31
q33 0 64.5 -12t56.5 -37.5t40.5 -64.5t15.5 -92q0 -51 -17 -85.5t-43 -56t-58.5 -31t-63.5 -9.5h-412zM1242 765q42 0 69 23t27 74q0 58 -23.5 89.5t-67.5 31.5q-32 0 -61 -20t-56 -51.5t-51.5 -69.5t-45.5 -74q-1 -1 -1 -3h210z" />
    <glyph glyph-name="uniFB68" unicode="&#x679;" horiz-adv-x="873" arabic-form="initial" 
d="M675 814q2 -6 8 -32t13.5 -64.5t16.5 -85t16 -94t12 -91.5t5 -77q0 -96 -31.5 -165.5t-82 -115t-113.5 -67.5t-127 -22h-414v189h414q15 0 42.5 4.5t55 22.5t48 54t20.5 100q0 22 -3.5 55.5t-9 72t-12.5 79t-14 76.5t-13 64t-10 42zM181 990v85h100l47 73v485h83v-363
q38 46 84 77t103 31q33 0 64.5 -12t56.5 -37.5t40.5 -64.5t15.5 -92q0 -51 -17 -85.5t-43 -56t-58.5 -31t-63.5 -9.5h-412zM593 1075q42 0 69 23t27 74q0 58 -23.5 89.5t-67.5 31.5q-32 0 -61 -20t-56 -51.5t-51.5 -69.5t-45.5 -74q-1 -1 -1 -3h210z" />
    <glyph glyph-name="uniFB69" unicode="&#x679;" horiz-adv-x="1049" arabic-form="medial" 
d="M1062 189v-189h-165q-91 0 -160.5 26t-111.5 78q-104 -104 -308 -104h-330v189h330q72 0 114 14.5t63.5 36t28 48t6.5 50.5v338h188v-331q0 -37 11.5 -63t28.5 -43.5t38.5 -27.5t41.5 -15t36 -6t24 -1h165zM146 856v85h100l47 73v485h83v-363q38 46 84 77t103 31
q33 0 64.5 -12t56.5 -37.5t40.5 -64.5t15.5 -92q0 -51 -17 -85.5t-43 -56t-58.5 -31t-63.5 -9.5h-412zM558 941q42 0 69 23t27 74q0 58 -23.5 89.5t-67.5 31.5q-32 0 -61 -20t-56 -51.5t-51.5 -69.5t-45.5 -74q-1 -1 -1 -3h210z" />
    <glyph glyph-name="uniFB6A" unicode="&#x6a4;" horiz-adv-x="2097" arabic-form="isolated" 
d="M1057 -3q-102 0 -193 0.5t-171.5 4.5t-150.5 12.5t-129 24.5q-143 39 -215 123q-82 92 -82 244q0 51 7.5 102.5t16.5 94t16.5 70t8.5 29.5l180 -55l-6.5 -23t-14 -58t-14 -77.5t-6.5 -82.5t8.5 -69.5t27 -51t48.5 -37t74 -27.5q102 -27 251 -31.5t344 -4.5h120
q56 0 130 0.5t159 0.5q75 0 129.5 7.5t93.5 19.5t63.5 28.5t39 34.5t20.5 36.5t8 35.5q-32 0 -71 0.5t-80 0.5q-75 0 -149.5 14t-134.5 53t-97.5 107t-37.5 176q0 81 27.5 151t76.5 122.5t117 82.5t149 30q111 0 186 -48.5t120.5 -128t64.5 -181t19 -207.5v-137
q0 -114 -45 -188.5t-120.5 -118.5t-174 -61.5t-204.5 -17.5h-409zM1620 897q-34 0 -66.5 -11.5t-58 -36t-41.5 -62t-16 -88.5q0 -38 9 -68t34.5 -51t70.5 -32t117 -11h152q-5 64 -12.5 128t-27 115.5t-57.5 84t-104 32.5zM1770 1715l-142 -139l-140 139l144 143zM1819 1263
l-158 160l156 162l162 -162zM1436 1265l-158 160l156 162l162 -162z" />
    <glyph glyph-name="uniFB6B" unicode="&#x6a4;" horiz-adv-x="2128" arabic-form="final" 
d="M1024 162q27 0 75 1.5t101 4.5t102.5 8t80.5 13q-33 30 -56.5 66t-38.5 75.5t-22 82t-7 84.5q0 73 30.5 140t84 117.5t125 80.5t153.5 30q86 0 154 -31.5t115 -83.5t72 -118t25 -135q0 -87 -27.5 -160t-82.5 -142q16 -1 37.5 -2t45 -2t46 -1.5t40.5 -0.5h73v-189h-73
q-130 0 -238.5 11.5t-196.5 36.5q-49 -18 -124.5 -32t-161 -23t-173 -14t-159.5 -5q-129 0 -247 3t-221.5 20.5t-191 56t-154.5 109.5q-43 45 -62.5 107t-19.5 137q0 51 7.5 102.5t16.5 94t16.5 70t8.5 29.5l180 -55l-6.5 -23t-14.5 -58t-14 -77.5t-6 -82.5q0 -60 30.5 -102
t82.5 -69t121 -42t147.5 -22t162 -8.5t164.5 -1.5zM1440 496q0 -50 14.5 -88.5t41 -68.5t64.5 -53t85 -40q45 17 81 39.5t61.5 52.5t39.5 69t14 90q0 34 -15.5 66.5t-42 57.5t-60.5 40t-71 15q-42 0 -80.5 -14t-68 -38t-46.5 -57t-17 -71zM1786 1530l-142 -139l-140 139
l144 143zM1835 1078l-158 160l156 162l162 -162zM1452 1080l-158 160l156 162l162 -162z" />
    <glyph glyph-name="uniFB6C" unicode="&#x6a4;" horiz-adv-x="997" arabic-form="initial" 
d="M-12 0v189h384q112 0 180.5 16t106.5 40t51.5 52.5t16.5 54.5h-152q-26 0 -58 2t-66.5 7.5t-69.5 16.5t-68 29q-27 16 -55 40t-50.5 59.5t-37 84t-14.5 113.5q0 81 28 153.5t80 124.5t119 79t143 27q87 0 160 -37t123 -106q54 -72 80 -178t26 -243v-138q0 -99 -39.5 -176
t-119.5 -125q-133 -85 -384 -85h-384zM526 899q-33 0 -67.5 -11.5t-62 -35t-45 -60.5t-17.5 -88q0 -33 7 -55.5t18 -37t23 -23.5t23 -15q29 -17 71 -24.5t99 -7.5h154q-2 99 -20.5 173t-50.5 121q-48 64 -132 64zM663 1664l-142 -139l-140 139l144 143zM712 1212l-158 160
l156 162l162 -162zM329 1214l-158 160l156 162l162 -162z" />
    <glyph glyph-name="uniFB6D" unicode="&#x6a4;" horiz-adv-x="1092" arabic-form="medial" 
d="M565 246q45 16 81 40t61.5 56t39.5 73t14 93q0 30 -15.5 60t-42 54t-60.5 39t-71 15q-42 0 -80.5 -13.5t-68 -36t-46.5 -53.5t-17 -65q-2 -50 12.5 -91t41.5 -73t65.5 -56.5t85.5 -41.5zM572 865q86 0 154 -30t115 -79.5t72 -114t25 -133.5q0 -97 -27.5 -175t-83.5 -138
q76 -6 164 -6h116v-189h-116q-256 0 -428 48q-88 -24 -202 -36t-260 -12h-119v189h119q109 0 195 6q-59 61 -88 139.5t-29 173.5q0 73 30.5 138t84 114t125 77t153.5 28zM680 1547l-142 -139l-140 139l144 143zM729 1095l-158 160l156 162l162 -162zM346 1097l-158 160
l156 162l162 -162z" />
    <glyph glyph-name="uniFB7B" unicode="&#x686;" horiz-adv-x="1575" arabic-form="final" 
d="M1064 474l105 8q0 -87 11 -143.5t32 -89.5t52 -46.5t71 -13.5h253v-189h-253q-63 0 -124.5 21t-110.5 69.5t-79.5 127.5t-30.5 196zM1342 532q-2 -1 -38 -12.5t-113.5 -38t-201 -70t-300.5 -109.5q-111 -41 -188 -77.5t-126.5 -72t-75.5 -72t-36 -77t-7.5 -87.5t9.5 -104
q15 -117 53 -198.5t98 -131.5t141 -72.5t182 -22.5h502v-189h-502q-143 0 -256.5 33t-196.5 104t-135 182.5t-73 269.5q-21 160 5 269.5t96 187t182 132t263 102.5l462 150q-97 39 -194 74t-178.5 61.5t-139.5 43t-77 19.5q-17 0 -35.5 -3t-36.5 -18t-35 -46.5t-32 -88.5
l-183 48q77 296 324 296q7 0 16.5 -0.5t29 -5t50.5 -14t81 -26.5t121 -43.5t170 -65.5l368 -150zM784.924 -506.919l-132.987 132.168l129.293 128.472l131.141 -128.472zM1105.39 -104.868l-149.61 -149.729l-144.069 149.729l145.916 147.881zM751.677 -106.717
l-149.61 -149.729l-144.07 149.729l145.917 147.881z" />
    <glyph glyph-name="uniFB7C" unicode="&#x686;" horiz-adv-x="1396" arabic-form="initial" 
d="M1288 400q-6 -4 -52 -35t-122.5 -75.5t-178.5 -95.5t-219.5 -94t-245.5 -71.5t-256 -28.5h-224v189h224q112 0 226.5 26.5t220.5 66t199 86t163 87.5q-97 39 -193.5 76t-176.5 65.5t-137.5 46.5t-76.5 21q-17 0 -35.5 -3t-36.5 -18t-35 -46.5t-32 -88.5l-183 48
q77 296 324 296q6 0 16 -0.5t29 -5t51 -14t81.5 -26.5t120.5 -43.5t170 -65.5l354 -131zM685 -799l-144 143l140 139l142 -139zM1032 -364l-162 -162l-156 162l158 160zM649 -366l-162 -162l-156 162l158 160z" />
    <glyph glyph-name="uniFB7D" unicode="&#x686;" horiz-adv-x="1536" arabic-form="medial" 
d="M1335 400q-6 -4 -50 -34t-117 -73q11 -37 35.5 -57.5t51.5 -31t51 -13t34 -2.5h210v-189h-210q-73 0 -136.5 21.5t-114.5 63.5q-58 49 -88 118q-77 -38 -165 -74.5t-182.5 -65t-194 -46t-198.5 -17.5h-281v189h281q112 0 226.5 26.5t220.5 66t199 86t163 87.5
q-97 39 -193.5 76t-176.5 65.5t-137.5 46.5t-76.5 21q-17 0 -35.5 -3t-36.5 -18t-35 -46.5t-32 -88.5l-183 48q77 296 324 296q7 0 16.5 -0.5t29 -5t50.5 -14t81 -26.5t121 -43.5t170 -65.5l354 -131zM694 -800l-144 143l140 139l142 -139zM1041 -365l-162 -162l-156 162
l158 160zM658 -367l-162 -162l-156 162l158 160z" />
    <glyph glyph-name="uniFB89" unicode="&#x688;" horiz-adv-x="1240" arabic-form="final" 
d="M1265 189v-189h-37q-149 0 -275 124q-75 -101 -263 -128q-35 -5 -74 -8t-81 -3q-51 0 -103 4.5t-101.5 14t-95.5 25t-83 36.5l-82 48l94 165l83 -48q35 -20 85.5 -32.5t107.5 -18t115 -4t108 8.5q58 9 95.5 25.5t47.5 37.5q14 16 4.5 48t-33.5 69l-375 571l159 104
l388 -592q30 -43 60.5 -88.5t64.5 -83t71.5 -62t82.5 -24.5h37zM286 1248v85h100l47 73v485h83v-363q38 46 84 77t103 31q33 0 64.5 -12t56.5 -37.5t40.5 -64.5t15.5 -92q0 -51 -17 -85.5t-43 -56t-58.5 -31t-63.5 -9.5h-412zM698 1333q42 0 69 23t27 74q0 58 -23.5 89.5
t-67.5 31.5q-32 0 -61 -20t-56 -51.5t-51.5 -69.5t-45.5 -74q-1 -1 -1 -3h210z" />
    <glyph glyph-name="uniFB8B" unicode="&#x698;" horiz-adv-x="844" arabic-form="final" 
d="M857 0h-43q-96 0 -177 38q0 -140 -39 -250t-114 -186.5t-184.5 -116.5t-251.5 -40h-138v189h138q103 0 178.5 24.5t125 75.5t73 130t23.5 188v624h189v-331q0 -56 23.5 -87.5t54.5 -46.5t59.5 -18.5t39.5 -3.5h43v-189zM664 1365l-142 -139l-140 139l144 143zM713 913
l-158 160l156 162l162 -162zM330 915l-158 160l156 162l162 -162z" />
    <glyph glyph-name="uniFB8D" unicode="&#x691;" horiz-adv-x="848" arabic-form="final" 
d="M857 0h-43q-96 0 -177 38q0 -140 -39 -250t-114 -186.5t-184.5 -116.5t-251.5 -40h-138v189h138q103 0 178.5 24.5t125 75.5t73 130t23.5 188v624h189v-331q0 -56 23.5 -87.5t54.5 -46.5t59.5 -18.5t39.5 -3.5h43v-189zM161 887v85h100l47 73v485h83v-363q38 46 84 77
t103 31q33 0 64.5 -12t56.5 -37.5t40.5 -64.5t15.5 -92q0 -51 -17 -85.5t-43 -56t-58.5 -31t-63.5 -9.5h-412zM573 972q42 0 69 23t27 74q0 58 -23.5 89.5t-67.5 31.5q-32 0 -61 -20t-56 -51.5t-51.5 -69.5t-45.5 -74q-1 -1 -1 -3h210z" />
    <glyph glyph-name="uniFB8F" unicode="&#x6a9;" horiz-adv-x="2183" arabic-form="final" 
d="M1056 183q114 0 199.5 6.5t145 20t94.5 32.5t48 45q17 33 16.5 69t-13.5 73t-36 75.5t-51 77.5l-316 441l35 164l899 412l77 -172l-806 -370l342 -481q79 -105 137 -178.5t112 -120t111 -67.5t133 -21h21v-189h-21q-86 0 -152.5 17t-121.5 48.5t-103 76.5t-96 100
q-20 -62 -55.5 -104t-83.5 -69.5t-106.5 -42.5t-124.5 -22t-138 -8t-146 -1q-102 0 -194 0.5t-173 4.5t-151 12.5t-130 24.5q-143 39 -215 123q-82 92 -82 244q0 51 7.5 102.5t16.5 94t16.5 70t8.5 29.5l180 -55l-6.5 -23t-14 -58t-14 -77.5t-6.5 -82.5t8.5 -69.5t27 -51
t48.5 -37t74 -27.5q102 -27 253 -31.5t346 -4.5z" />
    <glyph glyph-name="uniFB90" unicode="&#x6a9;" horiz-adv-x="1153" arabic-form="initial" 
d="M-23 0v189h586q72 0 119.5 16.5t61.5 45.5q13 29 0.5 71.5t-43.5 94t-76 108.5t-97 114t-107 111.5t-106 101t-93 82t-69 54.5l19 213l915 402l76 -172l-801 -350q30 -30 77 -75.5t102 -101t112 -118t108 -125.5t90.5 -123.5t58.5 -111.5q17 -44 23.5 -82t5.5 -69.5
t-7.5 -56.5t-14.5 -43q-11 -25 -34 -55.5t-64.5 -57t-103.5 -44.5t-152 -18h-586z" />
    <glyph glyph-name="uniFB91" unicode="&#x6a9;" horiz-adv-x="1258" arabic-form="medial" 
d="M1268 0h-15q-89 0 -158.5 17t-126.5 48.5t-105 76t-94 99.5q-2 -5 -4 -9t-4 -9q-28 -55 -78.5 -99t-119.5 -73q-59 -26 -131 -38.5t-150 -12.5h-294v189h294q58 0 108.5 8.5t91 24t69 37.5t42.5 49q24 49 4.5 119t-82.5 155q-89 125 -151 212t-101 142q-46 64 -75 105
l37 140l918 424l78 -173l-819 -375l397 -551q61 -82 109 -141.5t97.5 -98.5t108 -58t139.5 -19h15v-189z" />
    <glyph glyph-name="uniFB93" unicode="&#x6af;" horiz-adv-x="2184" arabic-form="final" 
d="M1056 183q114 0 199.5 6.5t145 20t94.5 32.5t48 45q17 33 16.5 69t-13.5 73t-36 75.5t-51 77.5l-316 441l35 164l899 412l77 -172l-806 -370l342 -481q79 -105 137 -178.5t112 -120t111 -67.5t133 -21h21v-189h-21q-86 0 -152.5 17t-121.5 48.5t-103 76.5t-96 100
q-20 -62 -55.5 -104t-83.5 -69.5t-106.5 -42.5t-124.5 -22t-138 -8t-146 -1q-102 0 -194 0.5t-173 4.5t-151 12.5t-130 24.5q-143 39 -215 123q-82 92 -82 244q0 51 7.5 102.5t16.5 94t16.5 70t8.5 29.5l180 -55l-6.5 -23t-14 -58t-14 -77.5t-6.5 -82.5t8.5 -69.5t27 -51
t48.5 -37t74 -27.5q102 -27 253 -31.5t346 -4.5zM1226 1478l759 327l42 -90l-812 -352z" />
    <glyph glyph-name="uniFB94" unicode="&#x6af;" horiz-adv-x="1180" arabic-form="initial" 
d="M-23 0v189h586q72 0 119.5 16.5t61.5 45.5q13 29 0.5 71.5t-43.5 94t-76 108.5t-97 114t-107 111.5t-106 101t-93 82t-69 54.5l19 213l915 402l76 -172l-801 -350q30 -30 77 -75.5t102 -101t112 -118t108 -125.5t90.5 -123.5t58.5 -111.5q17 -44 23.5 -82t5.5 -69.5
t-7.5 -56.5t-14.5 -43q-11 -25 -34 -55.5t-64.5 -57t-103.5 -44.5t-152 -18h-586zM205 1487l759 327l42 -90l-812 -352z" />
    <glyph glyph-name="uniFB95" unicode="&#x6af;" horiz-adv-x="1252" arabic-form="medial" 
d="M1268 0h-15q-89 0 -158.5 17t-126.5 48.5t-105 76t-94 99.5q-2 -5 -4 -9t-4 -9q-28 -55 -78.5 -99t-119.5 -73q-59 -26 -131 -38.5t-150 -12.5h-294v189h294q58 0 108.5 8.5t91 24t69 37.5t42.5 49q24 49 4.5 119t-82.5 155q-89 125 -151 212t-101 142q-46 64 -75 105
l37 140l918 424l78 -173l-819 -375l397 -551q61 -82 109 -141.5t97.5 -98.5t108 -58t139.5 -19h15v-189zM254 1477l759 327l42 -90l-812 -352z" />
    <glyph glyph-name="uniFB9F" unicode="&#x6ba;" horiz-adv-x="1684" arabic-form="final" 
d="M682 -554q-155 0 -281 67.5t-204 192.5q-54 85 -77.5 188.5t-16.5 221.5t44 247.5t103 267.5l170 -81q-56 -116 -88.5 -222.5t-40.5 -201.5t8 -176t57 -145q52 -81 136 -125.5t190 -44.5h235q115 0 187.5 24.5t113 68.5t55 106.5t14.5 138.5v392v8v303h189v-311
q1 -40 14.5 -72.5t36.5 -55.5t55.5 -35.5t72.5 -12.5h39v-189h-39q-98 0 -179 43v-70q0 -264 -140 -395.5t-419 -131.5h-235z" />
    <glyph glyph-name="uniFBA5" unicode="&#x6c0;" horiz-adv-x="1268" arabic-form="final" 
d="M1275 0h-25q-160 0 -279.5 68.5t-183.5 191.5q-32 -44 -76.5 -76.5t-100.5 -57.5q-32 -13 -74 -21t-89 -8t-96.5 11t-96.5 37q-72 38 -115.5 100.5t-57.5 147.5q-19 104 12.5 201.5t109.5 178.5q137 140 387 214l-19 108l184 39q24 -100 42 -177.5t32 -139.5
q3 -12 9.5 -40t15.5 -64.5t19 -78.5t20 -82t19 -75t16 -58q20 -75 59 -120.5t85 -70t93.5 -32t84.5 -7.5h25v-189zM640 805q-99 -29 -175 -69t-125.5 -88.5t-70.5 -104.5t-10 -117q7 -42 30 -70.5t54 -45.5q22 -13 48 -18.5t52 -6t50.5 3.5t43.5 12q126 52 147 189
q7 50 2.5 89.5t-7.5 53.5zM295 1243l9 127l124 37q-54 43 -74 104q-13 39 -7.5 79t25 74.5t51 60t69.5 36.5q27 9 54 9.5t52.5 -3t48.5 -11t43 -14.5l-25 -101q-17 4 -36 8t-38 6.5t-36 2t-28 -4.5q-17 -6 -31.5 -16.5t-24 -24t-12.5 -30.5t3 -37t22.5 -36.5t44.5 -25.5
t67 -9t92 14l85 25l34 -108z" />
    <glyph glyph-name="uniFBA7" unicode="&#x6c1;" horiz-adv-x="1290" arabic-form="final" 
d="M1302 0h-58q-29 0 -63.5 3t-72.5 12t-78 24t-80 39q-78 49 -130.5 122t-76.5 168q-17 66 -33 128t-32 125.5t-32.5 131.5t-35.5 146l-120 -25q-105 -27 -143 -94q-29 -49 -31.5 -118t10 -146t34 -156t42.5 -148l28 -92l-182 -51q-7 21 -13 43.5t-14 46.5
q-25 85 -50 179.5t-36.5 188.5t-2.5 183t52 164q81 140 262 182q20 5 55.5 13t70.5 15.5t61.5 12.5t28.5 5l111 -72q22 -96 41.5 -176.5t37.5 -153t36 -141.5t37 -143t58 -118.5t85 -68.5t93 -32t83 -8h58v-189z" />
    <glyph glyph-name="uniFBA8" unicode="&#x6c1;" horiz-adv-x="706" arabic-form="initial" 
d="M471 -612q-1 -29 -14.5 -53t-35.5 -42t-49 -28t-55 -10q-43 0 -75.5 16.5t-54 45t-32.5 65t-11 77.5q0 107 65 205t178 175l53 -80q-28 -18 -56.5 -43t-52 -52.5t-39 -55t-17 -50t13 -38t50.5 -17.5q29 -4 52 -11.5t40 -20.5t27 -33t13 -50zM523 814q2 -6 8 -32
t13.5 -64.5t16.5 -85t16 -94t12 -91.5t5 -77q0 -96 -31.5 -165.5t-82 -115t-113.5 -67.5t-127 -22h-255v189h255q15 0 42.5 4.5t55 22.5t48 54t20.5 100q0 22 -3.5 55.5t-9 72t-12.5 79t-14 76.5t-13 64t-10 42z" />
    <glyph glyph-name="uniFBA9" unicode="&#x6c1;" horiz-adv-x="1186" arabic-form="medial" 
d="M404 21q2 -60 21 -131t51.5 -138.5t78.5 -125t102 -91.5q-14 60 -15 131.5t12.5 144t42 141t73 121t105.5 84.5t140 32h184v-189h-184q-43 -17 -79.5 -51t-62 -78.5t-39.5 -97t-14 -107.5t16.5 -110.5t51.5 -104.5l-78 -149q-90 1 -166.5 30.5t-140.5 80t-114 118
t-86.5 145t-58.5 160.5t-29 164h-230v189h412z" />
    <glyph glyph-name="uniFBAB" unicode="&#x6be;" horiz-adv-x="1744" arabic-form="final" 
d="M1004 1117q110 -115 203 -215q40 -43 80 -86.5t74.5 -83t61 -72t39.5 -52.5q27 -44 44.5 -85t24 -83t2.5 -86t-19 -95q-11 -38 -28 -70h279v-189h-624v1h-6q-33 0 -79.5 6t-95.5 16.5t-96.5 26t-83.5 34.5q-47 -15 -116 -29.5t-148 -26.5t-161.5 -19.5t-154.5 -7.5
l38 189l308 36q-42 26 -75 65.5t-56 87t-35.5 98.5t-12.5 99q0 76 28 140.5t77.5 111.5t117 73.5t147.5 26.5q60 0 110 -17t91 -45.5t71.5 -66t51.5 -78t31.5 -82t10.5 -77.5q0 -103 -38.5 -185.5t-113.5 -145.5q42 -17 89.5 -28t94.5 -11q61 0 113.5 24.5t84.5 90.5
q20 41 10.5 90t-41 103.5t-80.5 114t-107.5 121.5t-122 124.5t-124.5 124.5zM751 328q75 33 119 91.5t44 142.5q0 50 -19.5 84.5t-47.5 55.5t-58 30.5t-52 9.5q-41 0 -74.5 -12.5t-57.5 -34.5t-37 -52.5t-13 -66.5q0 -43 10.5 -76.5t34 -62.5t60.5 -55t91 -54z" />
    <glyph glyph-name="uniFBAC" unicode="&#x6be;" horiz-adv-x="1455" arabic-form="initial" 
d="M625 258q37 16 68.5 40t55 54.5t36.5 66.5t13 78q0 50 -21 84.5t-50 56t-60.5 31t-53.5 9.5q-41 0 -75.5 -12.5t-60 -34.5t-40 -53t-14.5 -67q0 -43 11.5 -77.5t36 -64t62.5 -56.5t92 -55zM880 1052q110 -115 203 -215q40 -43 80 -86.5t74.5 -83t61 -72t39.5 -52.5
q27 -44 44.5 -85t24 -83t2.5 -86t-19 -95q-16 -58 -50.5 -105.5t-83.5 -81.5t-111 -52.5t-134 -18.5q-68 0 -141 18t-151 56q-22 9 -41 18q-17 8 -34.5 16t-28.5 14q-94 -29 -220 -43.5t-272 -14.5h-147v189h147q65 0 134.5 2t123.5 9q-72 63 -105 138.5t-33 172.5
q0 76 28 140.5t77.5 111.5t117 73.5t147.5 26.5q60 0 110 -17t91 -45.5t71.5 -66t51.5 -78t31.5 -82t10.5 -77.5q0 -103 -38.5 -185.5t-113.5 -145.5q42 -17 89.5 -28t94.5 -11q30 0 59.5 4t56 16t48.5 32.5t38 53.5q20 41 10 90.5t-42 105.5t-81 116.5t-108 123.5t-123 126
t-125 125z" />
    <glyph glyph-name="uniFBAD" unicode="&#x6be;" horiz-adv-x="1264" arabic-form="medial" 
d="M403 223q33 5 65.5 13t63.5 17q99 30 153 65.5t79 68.5t29 60.5t4 42.5q0 92 -43 133.5t-137 41.5q-36 0 -71.5 -15t-64.5 -62t-50 -134t-28 -231zM617 853q86 0 154.5 -24.5t116 -71.5t72.5 -114.5t25 -152.5q0 -51 -16 -108.5t-60 -113.5t-122 -106.5t-202 -87.5
q-88 -29 -179 -42q13 -65 47.5 -124.5t83.5 -110t108.5 -89.5t123.5 -63q-24 27 -36.5 64t-16.5 77.5t1 81.5t17 74q22 56 58 101.5t83 78t102.5 50t115.5 17.5h184v-189h-184q-63 0 -111 -33.5t-70 -90.5q-26 -68 -2 -139t91 -130l-62 -166q-97 0 -185 22.5t-164 62
t-138.5 93.5t-110.5 117t-79 132.5t-43 140.5q-64 -5 -122.5 -7t-109.5 -2v189q42 0 100.5 2t124.5 7q5 128 20 223t42 170q30 81 71 132t87.5 80t94.5 39.5t90 10.5z" />
    <glyph glyph-name="uniFBAF" unicode="&#x6d2;" horiz-adv-x="1314" arabic-form="final" 
d="M1288 -364v-188h-799q-84 0 -156 26.5t-125 76t-83 120t-30 157.5q0 76 32.5 142t87.5 115t126 76.5t148 27.5h840v-189h-832q-43 0 -83.5 -13.5t-72 -38t-50.5 -58.5t-19 -74t19 -73t49.5 -57t69.5 -37t79 -13h799z" />
    <glyph glyph-name="uniFBB1" unicode="&#x6d3;" horiz-adv-x="1316" arabic-form="final" 
d="M1288 -364v-188h-799q-84 0 -156 26.5t-125 76t-83 120t-30 157.5q0 76 32.5 142t87.5 115t126 76.5t148 27.5h840v-189h-832q-43 0 -83.5 -13.5t-72 -38t-50.5 -58.5t-19 -74t19 -73t49.5 -57t69.5 -37t79 -13h799zM185 294l9 127l124 37q-54 43 -74 104q-13 39 -7.5 79
t25 74.5t51 60t69.5 36.5q27 9 54 9.5t52.5 -3t48.5 -11t43 -14.5l-25 -101q-17 4 -36 8t-38 6.5t-36 2t-28 -4.5q-17 -6 -31.5 -16.5t-24 -24t-12.5 -30.5t3 -37t22.5 -36.5t44.5 -25.5t67 -9t92 14l85 25l34 -108z" />
    <glyph glyph-name="uniFBE6" unicode="&#x6d0;" horiz-adv-x="844" arabic-form="initial" 
d="M675 814q2 -6 8 -32t13.5 -64.5t16.5 -85t16 -94t12 -91.5t5 -77q0 -96 -31.5 -165.5t-82 -115t-113.5 -67.5t-127 -22h-414v189h414q15 0 42.5 4.5t55 22.5t48 54t20.5 100q0 22 -3.5 55.5t-9 72t-12.5 79t-14 76.5t-13 64t-10 42zM613 -311l-153 -151l-153 149l154 154
zM611 -698l-153 -151l-153 149l154 154z" />
    <glyph glyph-name="uniFBE7" unicode="&#x6d0;" horiz-adv-x="1052" arabic-form="medial" 
d="M1062 189v-189h-165q-91 0 -160.5 26t-111.5 78q-104 -104 -308 -104h-330v189h330q72 0 114 14.5t63.5 36t28 48t6.5 50.5v338h188v-331q0 -37 11.5 -63t28.5 -43.5t38.5 -27.5t41.5 -15t36 -6t24 -1h165zM787 -315l-153 -151l-153 149l154 154zM785 -702l-153 -151
l-153 149l154 154z" />
    <glyph glyph-name="uniFBE8" unicode="&#x649;" horiz-adv-x="688" arabic-form="initial" 
d="M523 814q2 -6 8 -32t13.5 -64.5t16.5 -85t16 -94t12 -91.5t5 -77q0 -96 -31.5 -165.5t-82 -115t-113.5 -67.5t-127 -22h-255v189h255q15 0 42.5 4.5t55 22.5t48 54t20.5 100q0 22 -3.5 55.5t-9 72t-12.5 79t-14 76.5t-13 64t-10 42z" />
    <glyph glyph-name="uniFBE9" unicode="&#x649;" horiz-adv-x="804" arabic-form="medial" 
d="M816 189v-189h-78q-91 0 -160.5 26t-111.5 78q-104 -104 -308 -104h-192v189h192q72 0 114 14.5t63.5 36t28 48t6.5 50.5v338h188v-331q0 -37 11 -63t28.5 -43.5t39 -27.5t41.5 -15t36 -6t24 -1h78z" />
    <glyph glyph-name="uniFBFD" unicode="&#x6cc;" horiz-adv-x="1778" arabic-form="final" 
d="M1515 0q42 -82 45.5 -155t-23.5 -134t-82 -110t-130 -82.5t-167 -52t-194 -18.5h-285q-158 0 -284 69t-206 191q-54 86 -77.5 190.5t-16.5 223t44.5 249.5t105.5 271l168 -82q-112 -236 -127.5 -427.5t65.5 -322.5q51 -83 136.5 -127t191.5 -44h285q56 0 110 8.5
t101 23.5t85 35.5t63.5 45.5t35.5 53.5t1 58.5q-12 39 -56 65.5t-106 42t-134 22t-139 6.5l7 189h862v-189h-279z" />
    <glyph glyph-name="uniFBFE" unicode="&#x6cc;" horiz-adv-x="873" arabic-form="initial" 
d="M675 814q2 -6 8 -32t13.5 -64.5t16.5 -85t16 -94t12 -91.5t5 -77q0 -96 -31.5 -165.5t-82 -115t-113.5 -67.5t-127 -22h-414v189h414q15 0 42.5 4.5t55 22.5t48 54t20.5 100q0 22 -3.5 55.5t-9 72t-12.5 79t-14 76.5t-13 64t-10 42zM749 -381l-162 -162l-156 162l158 160
zM366 -383l-162 -162l-156 162l158 160z" />
    <glyph glyph-name="uniFBFF" unicode="&#x6cc;" horiz-adv-x="1048" arabic-form="medial" 
d="M1062 189v-189h-165q-91 0 -160.5 26t-111.5 78q-104 -104 -308 -104h-330v189h330q72 0 114 14.5t63.5 36t28 48t6.5 50.5v338h188v-331q0 -37 11.5 -63t28.5 -43.5t38.5 -27.5t41.5 -15t36 -6t24 -1h165zM796 -387l-162 -162l-156 162l158 160zM413 -389l-162 -162
l-156 162l158 160z" />
    <glyph glyph-name="uniFC5E" unicode="&#xfc5e;" arabic-form="isolated" 
d="M-130 1691q-87 0 -136 48t-49 134v106h91v-106q0 -48 22 -70t72 -22q7 0 20.5 2.5t26.5 12t23 28t10 49.5v106h92v-106q0 -48 22 -70.5t73 -22.5q7 0 20 3.5t26 13t22 28t9 48.5q0 15 -3.5 36t-8.5 42t-9.5 39t-7.5 27l85 29q1 -5 7 -23.5t12 -44t11 -53.5t5 -52
q0 -47 -15 -81.5t-39.5 -57t-55 -33.5t-60.5 -11q-92 0 -140 53q-25 -27 -58 -39.5t-67 -12.5zM-271 2200q7 11 14.5 30t12 40.5t5 42.5t-6.5 35q-4 6 -13 14.5t-24 10.5q-13 0 -26.5 -3.5t-25.5 -9t-21.5 -11t-13.5 -8.5l-58 57q3 4 15 15t32 23t46.5 20.5t56.5 7.5
q35 -2 62.5 -19t43.5 -47q19 -34 19.5 -75.5t-7.5 -80.5q54 16 113 39.5t104 54.5q-13 5 -27 9.5t-39 16.5q-44 22 -67.5 51t-32.5 59.5t-5.5 58.5t13.5 47q15 31 41 56.5t57.5 41t65.5 17.5t66 -13q62 -30 85 -104q7 -25 10 -52.5t-1.5 -58.5t-17 -65t-35.5 -71
q-20 -33 -55 -60t-76 -48.5t-84 -38t-79.5 -27.5t-63 -17t-33.5 -7zM71 2601q-11 0 -25 -4.5t-27.5 -12.5t-25.5 -19t-19 -23l-1 -10t3 -25t16.5 -32t40.5 -30q15 -9 36.5 -17t47.5 -17q3 14 6.5 32t5.5 37.5t1 39t-6 37.5q-11 27 -35 41l-8 2t-10 1z" />
    <glyph glyph-name="uniFC5F" unicode="&#xfc5f;" arabic-form="isolated" 
d="M1 1753q-87 0 -136 48t-49 134v106h91v-106q0 -48 22 -70t72 -22q7 0 20.5 2.5t26.5 12t23 28t10 49.5v106h92v-106q0 -48 22 -70.5t73 -22.5q7 0 20 3.5t26 13t22 28t9 48.5q0 15 -3.5 36t-8.5 42t-9.5 39t-7.5 27l85 29q1 -5 7 -23.5t12 -44t11 -53.5t5 -52
q0 -47 -15 -81.5t-39.5 -57t-55 -33.5t-60.5 -11q-92 0 -140 53q-25 -27 -58 -39.5t-67 -12.5zM-117 1266l480 178v-110l-480 -181v113zM-117 1497l480 179v-111l-480 -180v112z" />
    <glyph glyph-name="uniFC60" unicode="&#xfc60;" arabic-form="isolated" 
d="M-130 1691q-87 0 -136 48t-49 134v106h91v-106q0 -48 22 -70t72 -22q7 0 20.5 2.5t26.5 12t23 28t10 49.5v106h92v-106q0 -48 22 -70.5t73 -22.5q7 0 20 3.5t26 13t22 28t9 48.5q0 15 -3.5 36t-8.5 42t-9.5 39t-7.5 27l85 29q1 -5 7 -23.5t12 -44t11 -53.5t5 -52
q0 -47 -15 -81.5t-39.5 -57t-55 -33.5t-60.5 -11q-92 0 -140 53q-25 -27 -58 -39.5t-67 -12.5zM-332 2214l480 178v-111l-480 -180v113z" />
    <glyph glyph-name="uniFC61" unicode="&#xfc61;" arabic-form="isolated" 
d="M-130 1691q-87 0 -136 48t-49 134v106h91v-106q0 -48 22 -70t72 -22q7 0 20.5 2.5t26.5 12t23 28t10 49.5v106h92v-106q0 -48 22 -70.5t73 -22.5q7 0 20 3.5t26 13t22 28t9 48.5q0 15 -3.5 36t-8.5 42t-9.5 39t-7.5 27l85 29q1 -5 7 -23.5t12 -44t11 -53.5t5 -52
q0 -47 -15 -81.5t-39.5 -57t-55 -33.5t-60.5 -11q-92 0 -140 53q-25 -27 -58 -39.5t-67 -12.5zM-292 2172q24 7 61.5 18t79.5 27.5t83.5 38t73.5 50.5q-22 11 -37.5 18t-31.5 15q-45 22 -69 50.5t-33.5 58.5t-6.5 58.5t12 48.5q15 31 42 57t59 41.5t67.5 18t67.5 -13.5
q65 -32 86 -104q7 -27 11 -56t-1 -62.5t-21 -72.5t-48 -84q-23 -33 -57 -59.5t-72.5 -48t-78 -37.5t-72.5 -27.5t-57 -18t-32 -8.5zM16 2578q-12 0 -26.5 -4t-28.5 -11.5t-25.5 -18t-18.5 -23.5q-1 0 -2.5 -9.5t3 -24t18 -31.5t42.5 -32q15 -8 33.5 -16.5t52.5 -24.5
q15 29 18 71.5t-7 77.5q-8 19 -23 32.5t-36 13.5z" />
    <glyph glyph-name="uniFC62" unicode="&#xfc62;" arabic-form="isolated" 
d="M-16 1714q-87 0 -136 48t-49 134v106h91v-106q0 -48 22 -70t72 -22q7 0 20.5 2.5t26.5 12t23 28t10 49.5v106h92v-106q0 -48 22 -70.5t73 -22.5q7 0 20 3.5t26 13t22 28t9 48.5q0 15 -3.5 36t-8.5 42t-9.5 39t-7.5 27l85 29q1 -5 7 -23.5t12 -44t11 -53.5t5 -52
q0 -47 -15 -81.5t-39.5 -57t-55 -33.5t-60.5 -11q-92 0 -140 53q-25 -27 -58 -39.5t-67 -12.5zM-127 1454l480 179v-111l-480 -180v112z" />
    <glyph glyph-name="uniFC63" unicode="&#xfc63;" arabic-form="isolated" 
d="M-130 1691q-87 0 -136 48t-49 134v106h91v-106q0 -48 22 -70t72 -22q7 0 20.5 2.5t26.5 12t23 28t10 49.5v106h92v-106q0 -48 22 -70.5t73 -22.5q7 0 20 3.5t26 13t22 28t9 48.5q0 15 -3.5 36t-8.5 42t-9.5 39t-7.5 27l85 29q1 -5 7 -23.5t12 -44t11 -53.5t5 -52
q0 -47 -15 -81.5t-39.5 -57t-55 -33.5t-60.5 -11q-92 0 -140 53q-25 -27 -58 -39.5t-67 -12.5zM-59 2580h116v-397h-116v397z" />
    <glyph glyph-name="uniFE70" unicode="&#xfe70;" arabic-form="isolated" 
d="M-240 1702l480 178v-111l-480 -180v113zM-240 1933l480 178v-110l-480 -180v112z" />
    <glyph glyph-name="uniFE72" unicode="&#xfe72;" arabic-form="isolated" 
d="M-271 1661q7 11 14.5 30t12 40.5t5 42.5t-6.5 35q-4 6 -13 14.5t-24 10.5q-13 0 -26.5 -3.5t-25.5 -9t-21.5 -11t-13.5 -8.5l-58 57q3 4 15 15t32 23t46.5 20.5t56.5 7.5q35 -2 62.5 -19t43.5 -47q19 -34 19.5 -75.5t-7.5 -80.5q54 16 113 39.5t104 54.5q-13 5 -27 9.5
t-39 16.5q-44 22 -67.5 51t-32.5 59.5t-5.5 58.5t13.5 47q15 31 41 56.5t57.5 41t65.5 17.5t66 -13q62 -30 85 -104q7 -25 10 -52.5t-1.5 -58.5t-17 -65t-35.5 -71q-20 -33 -55 -60t-76 -48.5t-84 -38t-79.5 -27.5t-63 -17t-33.5 -7zM71 2062q-11 0 -25 -4.5t-27.5 -12.5
t-25.5 -19t-19 -23l-1 -10t3 -25t16.5 -32t40.5 -30q15 -9 36.5 -17t47.5 -17q3 14 6.5 32t5.5 37.5t1 39t-6 37.5q-11 27 -35 41l-8 2t-10 1z" />
    <glyph glyph-name="uniFE74" unicode="&#xfe74;" arabic-form="isolated" 
d="M-240 -680l480 178v-110l-480 -181v113zM-240 -449l480 179v-111l-480 -180v112z" />
    <glyph glyph-name="uniFE76" unicode="&#xfe76;" arabic-form="isolated" 
d="M-240 1702l480 178v-111l-480 -180v113z" />
    <glyph glyph-name="uniFE78" unicode="&#xfe78;" arabic-form="isolated" 
d="M-292 1625q24 7 61.5 18t79.5 27.5t83.5 38t73.5 50.5q-22 11 -37.5 18t-31.5 15q-45 22 -69 50.5t-33.5 58.5t-6.5 58.5t12 48.5q15 31 42 57t59 41.5t67.5 18t67.5 -13.5q65 -32 86 -104q7 -27 11 -56t-1 -62.5t-21 -72.5t-48 -84q-23 -33 -57 -59.5t-72.5 -48
t-78 -37.5t-72.5 -27.5t-57 -18t-32 -8.5zM16 2031q-12 0 -26.5 -4t-28.5 -11.5t-25.5 -18t-18.5 -23.5q-1 0 -2.5 -9.5t3 -24t18 -31.5t42.5 -32q15 -8 33.5 -16.5t52.5 -24.5q15 29 18 71.5t-7 77.5q-8 19 -23 32.5t-36 13.5z" />
    <glyph glyph-name="uniFE7A" unicode="&#xfe7a;" arabic-form="isolated" 
d="M-240 -449l480 179v-111l-480 -180v112z" />
    <glyph glyph-name="uniFE7C" unicode="&#xfe7c;" arabic-form="isolated" 
d="M-130 1691q-87 0 -136 48t-49 134v106h91v-106q0 -48 22 -70t72 -22q7 0 20.5 2.5t26.5 12t23 28t10 49.5v106h92v-106q0 -48 22 -70.5t73 -22.5q7 0 20 3.5t26 13t22 28t9 48.5q0 15 -3.5 36t-8.5 42t-9.5 39t-7.5 27l85 29q1 -5 7 -23.5t12 -44t11 -53.5t5 -52
q0 -47 -15 -81.5t-39.5 -57t-55 -33.5t-60.5 -11q-92 0 -140 53q-25 -27 -58 -39.5t-67 -12.5z" />
    <glyph glyph-name="uniFE7E" unicode="&#xfe7e;" arabic-form="isolated" 
d="M-2 1671q-51 0 -92 15t-70.5 42.5t-45 67.5t-15.5 90q0 51 16 90.5t45 67.5t70 42.5t92 14.5q102 0 166 -59q63 -59 63 -154q0 -100 -63 -158q-64 -59 -166 -59zM-2 1774q49 0 81 29t32 83t-32 83.5t-81 29.5q-51 0 -82 -29.5t-31 -83.5q0 -112 113 -112z" />
    <glyph glyph-name="uniFE82" unicode="&#x622;" horiz-adv-x="647" arabic-form="final" 
d="M666 0q-95 1 -163.5 14.5t-116 39t-76 64t-44.5 90t-21 115.5t-5 142v809h189v-809q0 -87 5.5 -141t29 -83.5t71 -40t131.5 -11.5v-189zM706 1437h-483q-63 0 -106 -5t-72.5 -20t-48 -43t-32.5 -74l-158 47q46 161 167 221q51 26 113 33.5t137 7.5h483v-167z" />
    <glyph glyph-name="uniFE84" unicode="&#x623;" horiz-adv-x="647" arabic-form="final" 
d="M666 0q-95 1 -163.5 14.5t-116 39t-76 64t-44.5 90t-21 115.5t-5 142v809h189v-809q0 -87 5.5 -141t29 -83.5t71 -40t131.5 -11.5v-189zM7 1375l9 127l124 37q-54 43 -74 104q-13 39 -7.5 79t25 74.5t51 60t69.5 36.5q27 9 54 9.5t52.5 -3t48.5 -11t43 -14.5l-25 -101
q-17 4 -36 8t-38 6.5t-36 2t-28 -4.5q-17 -6 -31.5 -16.5t-24 -24t-12.5 -30.5t3 -37t22.5 -36.5t44.5 -25.5t67 -9t92 14l85 25l34 -108z" />
    <glyph glyph-name="uniFE86" unicode="&#x624;" horiz-adv-x="1036" arabic-form="final" 
d="M194 -363q151 0 254 23t163 71q52 42 76.5 107t24.5 162h-184q-70 0 -142 21t-130.5 69t-95.5 125.5t-37 189.5q0 66 11.5 119.5t29 95.5t38.5 73t41 53q55 55 126 85t152 30q71 0 133 -22t111 -66q135 -126 135 -395v-189h150v-189h-150q0 -142 -41.5 -244.5
t-128.5 -171.5q-88 -69 -218.5 -102.5t-317.5 -33.5v189zM521 672q-99 0 -154 -70t-55 -197q0 -129 78 -179q19 -12 39 -19.5t39 -11t34.5 -5t25.5 -1.5h184v189q0 73 -11 123.5t-28 83.5t-38.5 50.5t-42.5 25.5t-40 9.5t-31 1.5zM182 1014l9 127l124 37q-54 43 -74 104
q-13 39 -7.5 79t25 74.5t51 60t69.5 36.5q27 9 54 9.5t52.5 -3t48.5 -11t43 -14.5l-25 -101q-17 4 -36 8t-38 6.5t-36 2t-28 -4.5q-17 -6 -31.5 -16.5t-24 -24t-12.5 -30.5t3 -37t22.5 -36.5t44.5 -25.5t67 -9t92 14l85 25l34 -108z" />
    <glyph glyph-name="uniFE88" unicode="&#x625;" horiz-adv-x="647" arabic-form="final" 
d="M652 0q-95 1 -163.5 14.5t-116 39t-76 64t-44.5 90t-21 115.5t-5 142v962h189v-962q0 -87 5.5 -141t29 -83.5t71 -40t131.5 -11.5v-189zM82 -675l9 127l124 37q-54 43 -74 104q-13 39 -7.5 79t25 74.5t51 60t69.5 36.5q27 9 54 9.5t52.5 -3t48.5 -11t43 -14.5l-25 -101
q-17 4 -36 8t-38 6.5t-36 2t-28 -4.5q-17 -6 -31.5 -16.5t-24 -24t-12.5 -30.5t3 -37t22.5 -36.5t44.5 -25.5t67 -9t92 14l85 25l34 -108z" />
    <glyph glyph-name="uniFE8A" unicode="&#x626;" horiz-adv-x="1778" arabic-form="final" 
d="M1515 0q42 -82 45.5 -155t-23.5 -134t-82 -110t-130 -82.5t-167 -52t-194 -18.5h-285q-158 0 -284 69t-206 191q-54 86 -77.5 190.5t-16.5 223t44.5 249.5t105.5 271l168 -82q-112 -236 -127.5 -427.5t65.5 -322.5q51 -83 136.5 -127t191.5 -44h285q56 0 110 8.5
t101 23.5t85 35.5t63.5 45.5t35.5 53.5t1 58.5q-12 39 -56 65.5t-106 42t-134 22t-139 6.5l7 189h862v-189h-279zM689 319l9 127l124 37q-54 43 -74 104q-13 39 -7.5 79t25 74.5t51 60t69.5 36.5q27 9 54 9.5t52.5 -3t48.5 -11t43 -14.5l-25 -101q-17 4 -36 8t-38 6.5t-36 2
t-28 -4.5q-17 -6 -31.5 -16.5t-24 -24t-12.5 -30.5t3 -37t22.5 -36.5t44.5 -25.5t67 -9t92 14l85 25l34 -108z" />
    <glyph glyph-name="uniFE8B" unicode="&#x626;" horiz-adv-x="857" arabic-form="initial" 
d="M675 814q2 -6 8 -32t13.5 -64.5t16.5 -85t16 -94t12 -91.5t5 -77q0 -96 -31.5 -165.5t-82 -115t-113.5 -67.5t-127 -22h-414v189h414q15 0 42.5 4.5t55 22.5t48 54t20.5 100q0 22 -3.5 55.5t-9 72t-12.5 79t-14 76.5t-13 64t-10 42zM131 861l9 127l124 37q-54 43 -74 104
q-13 39 -7.5 79t25 74.5t51 60t69.5 36.5q27 9 54 9.5t52.5 -3t48.5 -11t43 -14.5l-25 -101q-17 4 -36 8t-38 6.5t-36 2t-28 -4.5q-17 -6 -31.5 -16.5t-24 -24t-12.5 -30.5t3 -37t22.5 -36.5t44.5 -25.5t67 -9t92 14l85 25l34 -108z" />
    <glyph glyph-name="uniFE8C" unicode="&#x626;" horiz-adv-x="1054" arabic-form="medial" 
d="M1062 189v-189h-165q-91 0 -160.5 26t-111.5 78q-104 -104 -308 -104h-330v189h330q72 0 114 14.5t63.5 36t28 48t6.5 50.5v338h188v-331q0 -37 11.5 -63t28.5 -43.5t38.5 -27.5t41.5 -15t36 -6t24 -1h165zM194 804l9 127l124 37q-54 43 -74 104q-13 39 -7.5 79t25 74.5
t51 60t69.5 36.5q27 9 54 9.5t52.5 -3t48.5 -11t43 -14.5l-25 -101q-17 4 -36 8t-38 6.5t-36 2t-28 -4.5q-17 -6 -31.5 -16.5t-24 -24t-12.5 -30.5t3 -37t22.5 -36.5t44.5 -25.5t67 -9t92 14l85 25l34 -108z" />
    <glyph glyph-name="uniFE8E" unicode="&#x627;" horiz-adv-x="644" arabic-form="final" 
d="M652 0q-95 1 -163.5 14.5t-116 39t-76 64t-44.5 90t-21 115.5t-5 142v962h189v-962q0 -87 5.5 -141t29 -83.5t71 -40t131.5 -11.5v-189z" />
    <glyph glyph-name="uniFE90" unicode="&#x628;" horiz-adv-x="2248" arabic-form="final" 
d="M2255 188v-188h-46q-79 0 -153 30t-128 89q-46 -46 -116 -71q-52 -19 -121 -29t-158.5 -14.5t-202.5 -5.5t-253 -1q-102 0 -194 0.5t-173 4.5t-151 12.5t-130 24.5q-143 39 -215 123q-82 92 -82 244q0 51 7.5 102.5t16.5 94t16.5 70t8.5 29.5l180 -55l-6.5 -23t-14 -58
t-14 -77.5t-6.5 -82.5t8.5 -69.5t27 -51t48.5 -37t74 -27.5q102 -27 253 -31.5t346 -4.5q162 0 281.5 1t203.5 7.5t137.5 19.5t83.5 37t41 61t11 90v274h189v-311q0 -46 16.5 -79.5t42.5 -55t59.5 -32t66.5 -10.5h46zM909 -362l170 172l174 -174l-172 -172z" />
    <glyph glyph-name="uniFE91" unicode="&#x628;" horiz-adv-x="701" arabic-form="initial" 
d="M523 814q2 -6 8 -32t13.5 -64.5t16.5 -85t16 -94t12 -91.5t5 -77q0 -96 -31.5 -165.5t-82 -115t-113.5 -67.5t-127 -22h-255v189h255q15 0 42.5 4.5t55 22.5t48 54t20.5 100q0 22 -3.5 55.5t-9 72t-12.5 79t-14 76.5t-13 64t-10 42zM172 -363l170 172l174 -174l-172 -172
z" />
    <glyph glyph-name="uniFE92" unicode="&#x628;" horiz-adv-x="812" arabic-form="medial" 
d="M828 189v-189h-78q-91 0 -160.5 26t-111.5 78q-104 -104 -308 -104h-192v189h192q72 0 114 14.5t63.5 36t28 48t6.5 50.5v338h188v-331q0 -37 11 -63t28.5 -43.5t39 -27.5t41.5 -15t36 -6t24 -1h78zM205 -374l170 172l174 -174l-172 -172z" />
    <glyph glyph-name="uniFE94" unicode="&#x629;" horiz-adv-x="1268" arabic-form="final" 
d="M1275 0h-25q-160 0 -279.5 68.5t-183.5 191.5q-32 -44 -76.5 -76.5t-100.5 -57.5q-32 -13 -74 -21t-89 -8t-96.5 11t-96.5 37q-72 38 -115.5 100.5t-57.5 147.5q-19 104 12.5 201.5t109.5 178.5q137 140 387 214l-19 108l184 39q24 -100 42 -177.5t32 -139.5
q3 -12 9.5 -40t15.5 -64.5t19 -78.5t20 -82t19 -75t16 -58q20 -75 59 -120.5t85 -70t93.5 -32t84.5 -7.5h25v-189zM640 805q-99 -29 -175 -69t-125.5 -88.5t-70.5 -104.5t-10 -117q7 -42 30 -70.5t54 -45.5q22 -13 48 -18.5t52 -6t50.5 3.5t43.5 12q126 52 147 189
q7 50 2.5 89.5t-7.5 53.5zM840 1304l-158 160l156 162l162 -162zM457 1306l-158 160l156 162l162 -162z" />
    <glyph glyph-name="uniFE96" unicode="&#x62a;" horiz-adv-x="2243" arabic-form="final" 
d="M2255 188v-188h-46q-79 0 -153 30t-128 89q-46 -46 -116 -71q-52 -19 -121 -29t-158.5 -14.5t-202.5 -5.5t-253 -1q-102 0 -194 0.5t-173 4.5t-151 12.5t-130 24.5q-143 39 -215 123q-82 92 -82 244q0 51 7.5 102.5t16.5 94t16.5 70t8.5 29.5l180 -55l-6.5 -23t-14 -58
t-14 -77.5t-6.5 -82.5t8.5 -69.5t27 -51t48.5 -37t74 -27.5q102 -27 253 -31.5t346 -4.5q162 0 281.5 1t203.5 7.5t137.5 19.5t83.5 37t41 61t11 90v274h189v-311q0 -46 16.5 -79.5t42.5 -55t59.5 -32t66.5 -10.5h46zM1257 766l-158 160l156 162l162 -162zM874 768l-158 160
l156 162l162 -162z" />
    <glyph glyph-name="uniFE97" unicode="&#x62a;" horiz-adv-x="888" arabic-form="initial" 
d="M675 814q2 -6 8 -32t13.5 -64.5t16.5 -85t16 -94t12 -91.5t5 -77q0 -96 -31.5 -165.5t-82 -115t-113.5 -67.5t-127 -22h-414v189h414q15 0 42.5 4.5t55 22.5t48 54t20.5 100q0 22 -3.5 55.5t-9 72t-12.5 79t-14 76.5t-13 64t-10 42zM627 1026l-158 160l156 162l162 -162z
M244 1028l-158 160l156 162l162 -162z" />
    <glyph glyph-name="uniFE98" unicode="&#x62a;" horiz-adv-x="1049" arabic-form="medial" 
d="M706 949l-158 160l156 162l162 -162zM323 951l-158 160l156 162l162 -162zM1062 189v-189h-165q-91 0 -160.5 26t-111.5 78q-104 -104 -308 -104h-330v189h330q72 0 114 14.5t63.5 36t28 48t6.5 50.5v338h188v-331q0 -37 11.5 -63t28.5 -43.5t38.5 -27.5t41.5 -15t36 -6
t24 -1h165z" />
    <glyph glyph-name="uniFE9A" unicode="&#x62b;" horiz-adv-x="2243" arabic-form="final" 
d="M2255 188v-188h-46q-79 0 -153 30t-128 89q-46 -46 -116 -71q-52 -19 -121 -29t-158.5 -14.5t-202.5 -5.5t-253 -1q-102 0 -194 0.5t-173 4.5t-151 12.5t-130 24.5q-143 39 -215 123q-82 92 -82 244q0 51 7.5 102.5t16.5 94t16.5 70t8.5 29.5l180 -55l-6.5 -23t-14 -58
t-14 -77.5t-6.5 -82.5t8.5 -69.5t27 -51t48.5 -37t74 -27.5q102 -27 253 -31.5t346 -4.5q162 0 281.5 1t203.5 7.5t137.5 19.5t83.5 37t41 61t11 90v274h189v-311q0 -46 16.5 -79.5t42.5 -55t59.5 -32t66.5 -10.5h46zM1225 1170l-142 -139l-140 139l144 143zM1274 718
l-158 160l156 162l162 -162zM891 720l-158 160l156 162l162 -162z" />
    <glyph glyph-name="uniFE9B" unicode="&#x62b;" horiz-adv-x="878" arabic-form="initial" 
d="M675 814q2 -6 8 -32t13.5 -64.5t16.5 -85t16 -94t12 -91.5t5 -77q0 -96 -31.5 -165.5t-82 -115t-113.5 -67.5t-127 -22h-414v189h414q15 0 42.5 4.5t55 22.5t48 54t20.5 100q0 22 -3.5 55.5t-9 72t-12.5 79t-14 76.5t-13 64t-10 42zM569 1446l-142 -139l-140 139l144 143
zM618 994l-158 160l156 162l162 -162zM235 996l-158 160l156 162l162 -162z" />
    <glyph glyph-name="uniFE9C" unicode="&#x62b;" horiz-adv-x="1049" arabic-form="medial" 
d="M1062 189v-189h-165q-91 0 -160.5 26t-111.5 78q-104 -104 -308 -104h-330v189h330q72 0 114 14.5t63.5 36t28 48t6.5 50.5v338h188v-331q0 -37 11.5 -63t28.5 -43.5t38.5 -27.5t41.5 -15t36 -6t24 -1h165zM628 1384l-142 -139l-140 139l144 143zM677 932l-158 160
l156 162l162 -162zM294 934l-158 160l156 162l162 -162z" />
    <glyph glyph-name="uniFE9E" unicode="&#x62c;" horiz-adv-x="1583" arabic-form="final" 
d="M1342 397q-3 -1 -40.5 -16t-128.5 -49q12 -37 32 -64t43 -44.5t48 -26t47 -8.5h253v-189h-253q-74 0 -132 18.5t-101 52.5t-72 83t-44 110l-262 -97q-108 -40 -185 -74t-128 -64.5t-79.5 -60t-41.5 -60t-14 -65.5t5 -76q13 -105 54 -171t104.5 -102.5t148.5 -50
t186 -13.5h459v-189h-459q-46 0 -97.5 2.5t-105 11t-107.5 24.5t-105 43q-226 122 -265 420q-16 121 11.5 209.5t101.5 159.5q70 67 182.5 120.5t269.5 111.5l427 152q-97 39 -195.5 73.5t-181 61t-142 42.5t-78.5 19q-17 0 -35.5 -3t-36.5 -18t-35 -46.5t-32 -88.5l-183 48
q77 296 324 296q7 0 16.5 -0.5t29 -5t50.5 -14t81 -26.5t121 -43.5t170 -65.5l368 -150zM680 -198l170 172l174 -174l-172 -172z" />
    <glyph glyph-name="uniFE9F" unicode="&#x62c;" horiz-adv-x="1439" arabic-form="initial" 
d="M1288 400q-6 -4 -52 -35t-122.5 -75.5t-178.5 -95.5t-219.5 -94t-245.5 -71.5t-256 -28.5h-224v189h224q112 0 226.5 26.5t220.5 66t199 86t163 87.5q-97 39 -193.5 76t-176.5 65.5t-137.5 46.5t-76.5 21q-17 0 -35.5 -3t-36.5 -18t-35 -46.5t-32 -88.5l-183 48
q77 296 324 296q6 0 16 -0.5t29 -5t51 -14t81.5 -26.5t120.5 -43.5t170 -65.5l354 -131zM503 -358l170 172l174 -174l-172 -172z" />
    <glyph glyph-name="uniFEA0" unicode="&#x62c;" horiz-adv-x="1532" arabic-form="medial" 
d="M1335 400q-6 -4 -50 -34t-117 -73q11 -37 35.5 -57.5t51.5 -31t51 -13t34 -2.5h210v-189h-210q-73 0 -136.5 21.5t-114.5 63.5q-58 49 -88 118q-77 -38 -165 -74.5t-182.5 -65t-194 -46t-198.5 -17.5h-281v189h281q112 0 226.5 26.5t220.5 66t199 86t163 87.5
q-97 39 -193.5 76t-176.5 65.5t-137.5 46.5t-76.5 21q-17 0 -35.5 -3t-36.5 -18t-35 -46.5t-32 -88.5l-183 48q77 296 324 296q7 0 16.5 -0.5t29 -5t50.5 -14t81 -26.5t121 -43.5t170 -65.5l354 -131zM520 -358l170 172l174 -174l-172 -172z" />
    <glyph glyph-name="uniFEA2" unicode="&#x62d;" horiz-adv-x="1575" arabic-form="final" 
d="M1342 397q-3 -1 -40.5 -16t-128.5 -49q12 -37 32 -64t43 -44.5t48 -26t47 -8.5h253v-189h-253q-74 0 -132 18.5t-101 52.5t-72 83t-44 110l-262 -97q-108 -40 -185 -74t-128 -64.5t-79.5 -60t-41.5 -60t-14 -65.5t5 -76q13 -105 54 -171t104.5 -102.5t148.5 -50
t186 -13.5h459v-189h-459q-46 0 -97.5 2.5t-105 11t-107.5 24.5t-105 43q-226 122 -265 420q-16 121 11.5 209.5t101.5 159.5q70 67 182.5 120.5t269.5 111.5l427 152q-97 39 -195.5 73.5t-181 61t-142 42.5t-78.5 19q-17 0 -35.5 -3t-36.5 -18t-35 -46.5t-32 -88.5l-183 48
q77 296 324 296q7 0 16.5 -0.5t29 -5t50.5 -14t81 -26.5t121 -43.5t170 -65.5l368 -150z" />
    <glyph glyph-name="uniFEA3" unicode="&#x62d;" horiz-adv-x="1368" arabic-form="initial" 
d="M1288 400q-6 -4 -52 -35t-122.5 -75.5t-178.5 -95.5t-219.5 -94t-245.5 -71.5t-256 -28.5h-224v189h224q112 0 226.5 26.5t220.5 66t199 86t163 87.5q-97 39 -193.5 76t-176.5 65.5t-137.5 46.5t-76.5 21q-17 0 -35.5 -3t-36.5 -18t-35 -46.5t-32 -88.5l-183 48
q77 296 324 296q6 0 16 -0.5t29 -5t51 -14t81.5 -26.5t120.5 -43.5t170 -65.5l354 -131z" />
    <glyph glyph-name="uniFEA4" unicode="&#x62d;" horiz-adv-x="1528" arabic-form="medial" 
d="M1335 400q-6 -4 -50 -34t-117 -73q11 -37 35.5 -57.5t51.5 -31t51 -13t34 -2.5h210v-189h-210q-73 0 -136.5 21.5t-114.5 63.5q-58 49 -88 118q-77 -38 -165 -74.5t-182.5 -65t-194 -46t-198.5 -17.5h-281v189h281q112 0 226.5 26.5t220.5 66t199 86t163 87.5
q-97 39 -193.5 76t-176.5 65.5t-137.5 46.5t-76.5 21q-17 0 -35.5 -3t-36.5 -18t-35 -46.5t-32 -88.5l-183 48q77 296 324 296q7 0 16.5 -0.5t29 -5t50.5 -14t81 -26.5t121 -43.5t170 -65.5l354 -131z" />
    <glyph glyph-name="uniFEA6" unicode="&#x62e;" horiz-adv-x="1576" arabic-form="final" 
d="M1342 397q-3 -1 -40.5 -16t-128.5 -49q12 -37 32 -64t43 -44.5t48 -26t47 -8.5h253v-189h-253q-74 0 -132 18.5t-101 52.5t-72 83t-44 110l-262 -97q-108 -40 -185 -74t-128 -64.5t-79.5 -60t-41.5 -60t-14 -65.5t5 -76q13 -105 54 -171t104.5 -102.5t148.5 -50
t186 -13.5h459v-189h-459q-46 0 -97.5 2.5t-105 11t-107.5 24.5t-105 43q-226 122 -265 420q-16 121 11.5 209.5t101.5 159.5q70 67 182.5 120.5t269.5 111.5l427 152q-97 39 -195.5 73.5t-181 61t-142 42.5t-78.5 19q-17 0 -35.5 -3t-36.5 -18t-35 -46.5t-32 -88.5l-183 48
q77 296 324 296q7 0 16.5 -0.5t29 -5t50.5 -14t81 -26.5t121 -43.5t170 -65.5l368 -150zM343 1259l170 172l174 -174l-172 -172z" />
    <glyph glyph-name="uniFEA7" unicode="&#x62e;" horiz-adv-x="1404" arabic-form="initial" 
d="M1288 400q-6 -4 -52 -35t-122.5 -75.5t-178.5 -95.5t-219.5 -94t-245.5 -71.5t-256 -28.5h-224v189h224q112 0 226.5 26.5t220.5 66t199 86t163 87.5q-97 39 -193.5 76t-176.5 65.5t-137.5 46.5t-76.5 21q-17 0 -35.5 -3t-36.5 -18t-35 -46.5t-32 -88.5l-183 48
q77 296 324 296q6 0 16 -0.5t29 -5t51 -14t81.5 -26.5t120.5 -43.5t170 -65.5l354 -131zM266 1261l170 172l174 -174l-172 -172z" />
    <glyph glyph-name="uniFEA8" unicode="&#x62e;" horiz-adv-x="1527" arabic-form="medial" 
d="M1335 400q-6 -4 -50 -34t-117 -73q11 -37 35.5 -57.5t51.5 -31t51 -13t34 -2.5h210v-189h-210q-73 0 -136.5 21.5t-114.5 63.5q-58 49 -88 118q-77 -38 -165 -74.5t-182.5 -65t-194 -46t-198.5 -17.5h-281v189h281q112 0 226.5 26.5t220.5 66t199 86t163 87.5
q-97 39 -193.5 76t-176.5 65.5t-137.5 46.5t-76.5 21q-17 0 -35.5 -3t-36.5 -18t-35 -46.5t-32 -88.5l-183 48q77 296 324 296q7 0 16.5 -0.5t29 -5t50.5 -14t81 -26.5t121 -43.5t170 -65.5l354 -131zM271 1261l170 172l174 -174l-172 -172z" />
    <glyph glyph-name="uniFEAA" unicode="&#x62f;" horiz-adv-x="1244" arabic-form="final" 
d="M1265 189v-189h-37q-149 0 -275 124q-75 -101 -263 -128q-35 -5 -74 -8t-81 -3q-51 0 -103 4.5t-101.5 14t-95.5 25t-83 36.5l-82 48l94 165l83 -48q35 -20 85.5 -32.5t107.5 -18t115 -4t108 8.5q58 9 95.5 25.5t47.5 37.5q14 16 4.5 48t-33.5 69l-375 571l159 104
l388 -592q30 -43 60.5 -88.5t64.5 -83t71.5 -62t82.5 -24.5h37z" />
    <glyph glyph-name="uniFEAC" unicode="&#x630;" horiz-adv-x="1236" arabic-form="final" 
d="M1265 189v-189h-37q-149 0 -275 124q-75 -101 -263 -128q-35 -5 -74 -8t-81 -3q-51 0 -103 4.5t-101.5 14t-95.5 25t-83 36.5l-82 48l94 165l83 -48q35 -20 85.5 -32.5t107.5 -18t115 -4t108 8.5q58 9 95.5 25.5t47.5 37.5q14 16 4.5 48t-33.5 69l-375 571l159 104
l388 -592q30 -43 60.5 -88.5t64.5 -83t71.5 -62t82.5 -24.5h37zM378 1418l170 172l174 -174l-172 -172z" />
    <glyph glyph-name="uniFEAE" unicode="&#x631;" horiz-adv-x="828" arabic-form="final" 
d="M857 0h-43q-96 0 -177 38q0 -140 -39 -250t-114 -186.5t-184.5 -116.5t-251.5 -40h-138v189h138q103 0 178.5 24.5t125 75.5t73 130t23.5 188v624h189v-331q0 -56 23.5 -87.5t54.5 -46.5t59.5 -18.5t39.5 -3.5h43v-189z" />
    <glyph glyph-name="uniFEB0" unicode="&#x632;" horiz-adv-x="844" arabic-form="final" 
d="M857 0h-43q-96 0 -177 38q0 -140 -39 -250t-114 -186.5t-184.5 -116.5t-251.5 -40h-138v189h138q103 0 178.5 24.5t125 75.5t73 130t23.5 188v624h189v-331q0 -56 23.5 -87.5t54.5 -46.5t59.5 -18.5t39.5 -3.5h43v-189zM369 1081l170 172l174 -174l-172 -172z" />
    <glyph glyph-name="uniFEB2" unicode="&#x633;" horiz-adv-x="2919" arabic-form="final" 
d="M2862 0q-99 0 -174.5 29t-125.5 84l-24 -23q-50 -42 -115 -66t-133 -24q-98 0 -172 29t-124 84l-24 -23q-50 -42 -115 -66t-133 -24q-125 0 -216 56v-84q0 -262 -140 -393t-419 -131h-235q-155 0 -281 67t-204 191q-54 85 -77.5 189t-16.5 223t44 250t103 270l170 -83
q-56 -116 -88.5 -223t-40.5 -202.5t8 -177t57 -145.5q52 -81 136 -125.5t190 -44.5h235q115 0 187.5 24t113 68t55 105.5t14.5 137.5v703h189v-194q0 -96 18.5 -153.5t49 -88.5t69 -41t79.5 -10q25 0 57 9t60 30.5t47.5 57.5t19.5 90v300h188v-310q2 -91 48.5 -134
t149.5 -43q25 0 56.5 9t59.5 30.5t47 57.5t19 90v300h188v-310q2 -91 49.5 -133.5t150.5 -42.5h69v-189h-69v0z" />
    <glyph glyph-name="uniFEB3" unicode="&#x633;" horiz-adv-x="1778" arabic-form="initial" 
d="M760 2q-94 0 -167 27.5t-123 79.5q-52 -56 -121 -82.5t-139 -26.5h-220v189h220q15 0 43 4.5t55 23t47.5 55.5t20.5 101v4v299h189v-299q0 -97 45.5 -142t149.5 -45q15 0 42.5 5.5t55 24.5t48 56t20.5 101v299h188v-299q0 -97 47 -143t151 -46q16 0 43 6.5t53.5 26.5
t45.5 57t19 99q0 22 -3.5 55t-9 71t-12.5 77.5t-14 74t-13 62t-10 40.5l179 57q2 -6 8 -31.5t14 -63t16.5 -83.5t16 -92.5t12.5 -90t5 -76.5q0 -95 -31 -165.5t-80.5 -117t-112.5 -70t-126 -24.5q-96 0 -169.5 28.5t-124.5 82.5q-52 -55 -120.5 -82t-137.5 -27z" />
    <glyph glyph-name="uniFEB4" unicode="&#x633;" horiz-adv-x="1776" arabic-form="medial" 
d="M1730 0q-96 0 -170 27.5t-124 82.5h-1l-15 -16q-49 -47 -111 -70.5t-133 -23.5q-187 0 -290 108q-50 -53 -115 -79.5t-132 -28.5h-13q-177 3 -276 104q-6 -8 -14 -14q-101 -90 -285 -90h-68v189h68q64 0 103.5 12t61.5 35.5t29.5 57t7.5 76.5v305h189v-300q0 -97 47 -141
t147 -45q18 1 44.5 7t51 25t42.5 54.5t18 94.5v305h188v-300q0 -97 46.5 -141.5t149.5 -44.5q29 0 58 9t52 30t38 54.5t17 82.5v310h189v-310q2 -92 51 -134t149 -42h61v-189h-61v0z" />
    <glyph glyph-name="uniFEB6" unicode="&#x634;" horiz-adv-x="2920" arabic-form="final" 
d="M2862 0q-99 0 -174.5 29t-125.5 84l-24 -23q-50 -42 -115 -66t-133 -24q-98 0 -172 29t-124 84l-24 -23q-50 -42 -115 -66t-133 -24q-125 0 -216 56v-84q0 -262 -140 -393t-419 -131h-235q-155 0 -281 67t-204 191q-54 85 -77.5 189t-16.5 223t44 250t103 270l170 -83
q-56 -116 -88.5 -223t-40.5 -202.5t8 -177t57 -145.5q52 -81 136 -125.5t190 -44.5h235q115 0 187.5 24t113 68t55 105.5t14.5 137.5v703h189v-194q0 -96 18.5 -153.5t49 -88.5t69 -41t79.5 -10q25 0 57 9t60 30.5t47.5 57.5t19.5 90v300h188v-310q2 -91 48.5 -134
t149.5 -43q25 0 56.5 9t59.5 30.5t47 57.5t19 90v300h188v-310q2 -91 49.5 -133.5t150.5 -42.5h69v-189h-69v0zM2138 1365l-142 -139l-140 139l144 143zM2187 913l-158 160l156 162l162 -162zM1804 915l-158 160l156 162l162 -162z" />
    </font>
</defs>
</svg>
